MONEYBALL 2011 R5 H264 BSBT-RG STAR1

Torrent Details

MONEYBALL 2011 R5 H264 BSBT-RG STAR1Name:MONEYBALL 2011 R5 H264 BSBT-RG STAR1.torrent
Status:
This torrent has been verified!This torrent has been verified to be real and without virusses.
Category:Movies
Size:1.1 GB in 2 files
Added:Uploaded on 15-11-2011 by our crawler pet called "Spidey".
Swarm:0 seeders & 0 leechers
Vote:You got to be logged in to vote for this torrent.
Rating:No votes yet.

Torrent Download Locations

Torrent Description



SCREENS......






Format : MPEG-4
Format profile : Base Media / Version 2
Codec ID : mp42
File size : 1.07 GiB
Duration : 2h 7mn
Overall bit rate : 1 201 Kbps
Encoded date : UTC 2011-11-15 19:21:41
Tagged date : UTC 2011-11-15 20:31:50
Writing application : HandBrake 0.9.5 2011010300

Video
ID : 1
Format : AVC
Format/Info : Advanced Video Codec
Format profile : [email protected]
Format settings, CABAC : Yes
Format settings, ReFrames : 4 frames
Codec ID : avc1
Codec ID/Info : Advanced Video Coding
Duration : 2h 7mn
Bit rate mode : Variable
Bit rate : 1 036 Kbps
Width : 624 pixels
Height : 336 pixels
Display aspect ratio : 1.857
Frame rate mode : Variable
Frame rate : 24.951 fps
Minimum frame rate : 14.286 fps
Maximum frame rate : 25.000 fps
Color space : YUV
Chroma subsampling : 4:2:0
Bit depth : 8 bits
Scan type : Progressive
Bits/(Pixel*Frame) : 0.198
Stream size : 947 MiB (86%)
Writing library : x264 core 112
Encoded date : UTC 2011-11-15 19:21:41
Tagged date : UTC 2011-11-15 20:31:50
Color primaries : BT.601-6 525, BT.1358 525, BT.1700 NTSC, SMPTE 170M
Transfer characteristics : BT.709-5, BT.1361
Matrix coefficients : BT.601-6 525, BT.1358 525, BT.1700 NTSC, SMPTE 170M

Audio
ID : 2
Format : AAC
Format/Info : Advanced Audio Codec
Format profile : LC
Codec ID : 40
Duration : 2h 7mn
Bit rate mode : Variable
Bit rate : 160 Kbps
Maximum bit rate : 247 Kbps
Channel(s) : 2 channels
Channel positions : Front: L R
Sampling rate : 44.1 KHz
Compression mode : Lossy
Stream size : 146 MiB (13%)
Encoded date : UTC 2011-11-15 19:21:41
Tagged date : UTC 2011-11-15 20:31:50

TRACKERS......

Code: udp://tracker.1337x.org:80/announce

http://9.rarbg.com:2710/announce

http://tracker.novalayer.org:6969/announce

http://cpleft.com:2710/announce

http://pow7.com:80/announce

http://tracker.blazing.de:80/announce

http://tracker.publicbt.com/announce

http://tracker.token.ro:80/announce

INFOHASH...... C555833F638C2D26BB7C683A8D20ADE6021DA5D6

Discussion

0 Responses

There are no responses yet

Add your Response

To post your comment to this torrent, please login to our site.

Torrent Files Size
bsbt_nfo.txt 5.9 KB
Moneyball 2011 R5 H264 Star1.m4v 1.1 GB

© 2014 TorLock - The No Fakes Torrent Site