Moneyball 2011 R5 DVDRip Cam Audio Xvid-SiNiSTER

Torrent Details

Moneyball 2011 R5 DVDRip Cam Audio Xvid-SiNiSTERName:Moneyball 2011 R5 DVDRip Cam Audio Xvid-SiNiSTER.torrent
Status:
This torrent has been verified!This torrent has been verified to be real and without virusses.
Category:Movies
Size:1 GB in 9 files
Added:Uploaded on 16-11-2011 by our crawler pet called "Spidey".
Swarm:0 seeders & 0 leechers
Connect: Torlock Facebook Page
Vote:You got to be logged in to vote for this torrent.
Rating:No votes yet.

Torrent Download Locations

Torrent Description

*******************************************************************************
Moneyball.2011.R5.DVDRip.Cam Audio.Xvid-SiNiSTER
*******************************************************************************
-------------------------------------------------------------------------------
General Information
-------------------------------------------------------------------------------

Format : AVI
Format/Info : Audio Video Interleave
File size : 1.03 GiB
Duration : 2h 7mn
Overall bit rate : 1 155 Kbps
Writing library : VirtualDub build 32839/release
Video
ID : 0
Format : MPEG-4 Visual
Format profile : Advanced Simple@L5
Format settings, BVOP : Yes
Format settings, QPel : No
Format settings, GMC : No warppoints
Format settings, Matrix : Default (H.263)
Muxing mode : Packed bitstream
Codec ID : XVID
Codec ID/Hint : XviD
Duration : 2h 7mn
Bit rate : 1 034 Kbps
Width : 720 pixels
Height : 384 pixels
Display aspect ratio : 1.875
Frame rate : 25.000 fps
Color space : YUV
Chroma subsampling : 4:2:0
Bit depth : 8 bits
Scan type : Progressive
Bits/(Pixel*Frame) : 0.150
Stream size : 944 MiB (89%)
Writing library : XviD 1.2.1 (UTC 2008-12-04)
Audio
ID : 1
Format : MPEG Audio
Format version : Version 1
Format profile : Layer 3
Codec ID : 55
Codec ID/Hint : MP3
Duration : 2h 7mn
Bit rate mode : Constant
Bit rate : 112 Kbps
Channel(s) : 2 channels
Sampling rate : 44.1 KHz
Stream size : 102 MiB (10%)
Alignment : Split accross interleaves
Interleave, duration : 40 ms (1.00 video frame)
Writing library : LAME3.98.4
Video Source: Moneyball_20011_DVD9_R5.....thanks
Audio Source: MiSTERE.....thanks
Greets:
DarkScene,HDScene,Noir,CrEwSaDe,blackjesus,ViSiON,HDLiTE,UnKnOwN,IMAGiNE,
FLAWL3SS,Rx,ELEKTRI4KA,CiNEDUB,BDK,SAFCuk009,HiVE-CM8..... and everybody else we
respect.. u know who u are
-------------------------------------------------------------------------------
Post Information
-------------------------------------------------------------------------------
Encoded by...........: SiNiSTER

Have sumthing to offer..looking for suppliers... cammers,cams,screeners, audio
supplier.. and any pre retail DVD/BR any RC...if u can provide any email us at
[email protected]
-------------------------------------------------------------------------------
Release Notes
-------------------------------------------------------------------------------
source was very nice.. just made a script to crop, resize, denoise, slight RGB
adjustment and sharpen.. then i synced and muxed MiSTERE's Cam audio to my encode
after i cleaned it up and boosted the volume a lil bit.....enjoy
-------------------------------------------------------------------------------
ScreenShots
-------------------------------------------------------------------------------





-------------------------------------------------------------------------------

-------------------------------------------------------------------------------
Generated with Cool NFO Creator - http://fly.to/coolbeans
-------------------------------------------------------------------------------

Discussion

0 Responses

There are no responses yet

Add your Response

To post your comment to this torrent, please login to our site.

Torrent Files Size
enjoy.txt 36 B
Moneyball.2011.R5.DVDRip.Cam Audio.jpg 151.4 KB
Moneyball.2011.R5.DVDRip.Cam Audio.Xvid-SiNiSTER.avi 1 GB
sceneunderground org.txt 27 B
SiNiSTER NFO.nfo 4.5 KB
vlcsnap-00001.png 375 KB
vlcsnap-00002.png 370 KB
vlcsnap-00003.png 339.2 KB
vlcsnap-00004.png 238.5 KB

© 2014 TorLock - The No Fakes Torrent Site