The Sitter 2011 TS XviD Feel-Free

Torrent Details

The Sitter 2011 TS XviD Feel-FreeName:The Sitter 2011 TS XviD Feel-Free.torrent
Status:
This torrent has been verified!This torrent has been verified to be real and without virusses.
Category:Movies
Size:805 MB in 9 files
Added:Uploaded on 27-12-2011 by our crawler pet called "Spidey".
Swarm:0 seeders & 0 leechers
Vote:You got to be logged in to vote for this torrent.
Rating:No votes yet.

Torrent Download Locations

Torrent Description

Genre:Comedy
Language:English
IMDb:http://www.imdb.com/title/tt1366344/
Source:720p TS NEW SOURCE XviD - TH3GRiNCH Thanks!

Format : AVI
Format/Info : Audio Video Interleave
File size : 804 MiB
Duration : 1h 17mn
Overall bit rate : 1 448 Kbps

Video
ID : 0
Format : MPEG-4 Visual
Format profile : Advanced Simple@L5
Format settings, BVOP : Yes
Format settings, QPel : No
Format settings, GMC : No warppoints
Format settings, Matrix : Default (H.263)
Codec ID : XVID
Codec ID/Hint : XviD
Duration : 1h 17mn
Bit rate : 1 246 Kbps
Width : 640 pixels
Height : 312 pixels
Display aspect ratio : 2.051
Frame rate : 24.000 fps
Color space : YUV
Chroma subsampling : 4:2:0
Bit depth : 8 bits
Scan type : Progressive
Bits/(Pixel*Frame) : 0.260
Stream size : 692 MiB (86%)
Writing library : XviD 1.2.1 (UTC 2008-12-04)

Audio
ID : 1
Format : AC-3
Format/Info : Audio Coding 3
Mode extension : CM (complete main)
Codec ID : 2000
Duration : 1h 17mn
Bit rate mode : Constant
Bit rate : 192 Kbps
Channel(s) : 2 channels
Channel positions : Front: L R
Sampling rate : 48.0 KHz
Bit depth : 16 bits
Stream size : 107 MiB (13%)
Alignment : Aligned on interleaves
Interleave, duration : 42 ms (1.00 video frame)
Interleave, preload duration : 512 ms


Plot:
A comedy about a college student on suspension who is coaxed into babysitting the kids next door, though he is fully unprepared for the wild night ahead of him

TRAILER:
http://www.youtube.com/watch?v=japyVYImEcM&feature=player_embedded








Greets:

CRYS,IMAGINE,LKRG,FXG,3Li,FLAWL3SS,TA,iLLUSiON,EMBER,ETRG,BHRG,iLLUMiNATi,MiSTERE.ViSiON,DTRG SAFCuk009,LU,TheFalcon007,MYSTiC,PrisM,Noir,WBZ,LAP,Rx,Kingdom,SAFCuk009+Fabreezy,HDLiTE,TWiZTED,ExtraTorrentRG.ELEKTRI4KA,MAGNAT,CM8
And to all the other p2p grps past and present






Thanks to all who promotes release Feel-Free !!!

Discussion

0 Responses

There are no responses yet

Add your Response

To post your comment to this torrent, please login to our site.

Torrent Files Size
mbf4qspg1mk17g1d8myc.jpg 51.8 KB
The Sitter 2011 TS XviD Feel-Free.avi 803.5 MB
The Sitter 2011 TS XviD Feel-Free.nfo 2.8 KB
vlcsnap-00001.png 253.9 KB
vlcsnap-00002.png 296.2 KB
vlcsnap-00003.png 425.4 KB
vlcsnap-00004.png 267.8 KB
vlcsnap-00005.png 333.3 KB
vlcsnap-00006.png 233.6 KB

© 2014 TorLock - The No Fakes Torrent Site