THE SITTER 2012 TS H264 AC3 BSBT-RG STAR1

Torrent Details

THE SITTER 2012 TS H264 AC3 BSBT-RG STAR1Name:THE SITTER 2012 TS H264 AC3 BSBT-RG STAR1.torrent
Status:
This torrent has been verified!This torrent has been verified to be real and without virusses.
Category:Movies
Size:808 MB in 2 files
Added:Uploaded on 28-12-2011 by our crawler pet called "Spidey".
Swarm:3 seeders & 0 leechers
Vote:You got to be logged in to vote for this torrent.
Rating:No votes yet.

Torrent Download Locations

Torrent Description



SCREENS:







Format : MPEG-4
Format profile : Base Media / Version 2
Codec ID : mp42
File size : 808 MiB
Duration : 1h 17mn
Overall bit rate mode : Variable
Overall bit rate : 1 456 Kbps
Encoded date : UTC 2011-12-28 03:03:04
Tagged date : UTC 2011-12-28 03:46:43
Writing application : HandBrake 0.9.5 2011010300

Video
ID : 1
Format : AVC
Format/Info : Advanced Video Codec
Format profile : [email protected]
Format settings, CABAC : Yes
Format settings, ReFrames : 4 frames
Codec ID : avc1
Codec ID/Info : Advanced Video Coding
Duration : 1h 17mn
Bit rate mode : Variable
Bit rate : 1 036 Kbps
Width : 720 pixels
Height : 368 pixels
Display aspect ratio : 1.957
Frame rate mode : Variable
Frame rate : 24.000 fps
Minimum frame rate : 19.194 fps
Maximum frame rate : 48.026 fps
Color space : YUV
Chroma subsampling : 4:2:0
Bit depth : 8 bits
Scan type : Progressive
Bits/(Pixel*Frame) : 0.163
Stream size : 575 MiB (71%)
Writing library : x264 core 112
Encoded date : UTC 2011-12-28 03:03:04
Tagged date : UTC 2011-12-28 03:46:43
Color primaries : BT.601-6 525, BT.1358 525, BT.1700 NTSC, SMPTE 170M
Transfer characteristics : BT.709-5, BT.1361
Matrix coefficients : BT.601-6 525, BT.1358 525, BT.1700 NTSC, SMPTE 170M

Audio #1
ID : 2
Format : AAC
Format/Info : Advanced Audio Codec
Format profile : LC
Codec ID : 40
Duration : 1h 17mn
Bit rate mode : Variable
Bit rate : 160 Kbps
Maximum bit rate : 194 Kbps
Channel(s) : 2 channels
Channel positions : Front: L R
Sampling rate : 48.0 KHz
Compression mode : Lossy
Stream size : 88.8 MiB (11%)
Encoded date : UTC 2011-12-28 03:03:04
Tagged date : UTC 2011-12-28 03:46:43

Audio #2
ID : 3
Format : AC-3
Format/Info : Audio Coding 3
Mode extension : CM (complete main)
Codec ID : ac-3
Duration : 1h 17mn
Bit rate mode : Constant
Bit rate : 256 Kbps
Channel(s) : 2 channels
Channel positions : Front: L R
Sampling rate : 48.0 KHz
Bit depth : 16 bits
Compression mode : Lossy
Stream size : 142 MiB (18%)
Encoded date : UTC 2011-12-28 03:03:04
Tagged date : UTC 2011-12-28 03:46:43

TRACKERS:

Code: http://tracker.publicbt.com:80/announce

http://10.rarbg.com/announce

http://tracker.torrent.to:2710/announce

udp://tracker.1337x.org:80/announce

HAPPY NEW YEAR TO ALL OF BSBT AND OTHER RGS

INFOHASH: 1D65ECDDE14D525A32E3123FF3236829B845EBC3

Discussion

0 Responses

There are no responses yet

Add your Response

To post your comment to this torrent, please login to our site.

Torrent Files Size
bsbt_nfo.txt 5.8 KB
the sitter 2012 h264 AC3 star1.mp4 808.3 MB

© 2014 TorLock - The No Fakes Torrent Site