Loading...

New Years Eve 2011 TS XviD Feel-Free

Torrent Details

New Years Eve  2011 TS XviD Feel-FreeName:New Years Eve 2011 TS XviD Feel-Free.torrent
Status:
This torrent has been verified!This torrent has been verified to be real and without virusses.
Category:Movies
Size:1.6 GB in 8 files
Added:Uploaded on 21-01-2012 by our crawler pet called "Spidey".
Swarm:3 seeders & 0 leechers
Connect: Torlock Facebook Page
Vote:You got to be logged in to vote for this torrent.
Rating:No votes yet.

Torrent Download Locations

Torrent Description

Genre: Comedy | Romance
Language:English
IMDb:http://www.imdb.com/title/tt1598822/
Source:Starui.novui.god.D.TS/WDR Thanks!
Encoder:Tony

Format : AVI
Format/Info : Audio Video Interleave
File size : 1.56 GiB
Duration : 1h 48mn
Overall bit rate : 2 059 Kbps

Video
ID : 0
Format : MPEG-4 Visual
Format profile : Advanced Simple@L5
Format settings, BVOP : 1
Format settings, QPel : No
Format settings, GMC : No warppoints
Format settings, Matrix : Default (H.263)
Codec ID : XVID
Codec ID/Hint : XviD
Duration : 1h 48mn
Bit rate : 1 599 Kbps
Width : 640 pixels
Height : 344 pixels
Display aspect ratio : 1.860
Frame rate : 29.970 fps
Color space : YUV
Chroma subsampling : 4:2:0
Bit depth : 8 bits
Scan type : Progressive
Compression mode : Lossy
Bits/(Pixel*Frame) : 0.242
Stream size : 1.21 GiB (78%)
Writing library : XviD 1.2.1 (UTC 2008-12-04)

Audio
ID : 1
Format : AC-3
Format/Info : Audio Coding 3
Mode extension : CM (complete main)
Codec ID : 2000
Duration : 1h 48mn
Bit rate mode : Constant
Bit rate : 448 Kbps
Channel(s) : 2 channels
Channel positions : Front: L R
Sampling rate : 48.0 KHz
Bit depth : 16 bits
Compression mode : Lossy
Stream size : 347 MiB (22%)
Alignment : Aligned on interleaves
Interleave, duration : 33 ms (1.00 video frame)
Interleave, preload duration : 512 ms


Plot:
The lives of several couples and singles in New York intertwine over the course of New Year's Eve.

TRAILER:
http://www.youtube.com/watch?v=k1Y2uXjsKjs&feature=player_embedded







Greets:

CRYS,IMAGINE,LKRG,FXG,3Li,FLAWL3SS,TA,iLLUSiON,EMBER,ETRG,BHRG,iLLUMiNATi,MiSTERE.ViSiON,DTRG SAFCuk009,LU,TheFalcon007,MYSTiC,PrisM,Noir,WBZ,LAP,Rx,Kingdom,SAFCuk009+Fabreezy,HDLiTE,TWiZTED,ExtraTorrentRG.ELEKTRI4KA,MAGNAT,CM8
And to all the other p2p grps past and present






Thanks to all who promotes release Feel-Free !!!

Discussion

0 Responses

There are no responses yet

Add your Response

To post your comment to this torrent, please login to our site.

Torrent Files Size
0f4273c71f.jpg 219.8 KB
New Years Eve 2011 TS XviD.Feel-Free.avi 1.6 GB
New Years Eve 2011 TS XviD.Feel-Free.nfo 3.2 KB
vlcsnap-2012-01-21-09h04m20s230.png 184.3 KB
vlcsnap-2012-01-21-09h04m54s66.png 291.4 KB
vlcsnap-2012-01-21-09h05m14s255.png 151.3 KB
vlcsnap-2012-01-21-09h06m17s112.png 177.9 KB
vlcsnap-2012-01-21-09h06m47s152.png 250.7 KB

© 2014 TorLock - The No Fakes Torrent Site