The Hunter 2011 BRRip XviD Ac3 Feel-Free

Torrent Details

The Hunter 2011 BRRip XviD Ac3 Feel-FreeName:The Hunter 2011 BRRip XviD Ac3 Feel-Free.torrent
Status:
This torrent has been verified!This torrent has been verified to be real and without virusses.
Category:Movies
Size:1.4 GB in 6 files
Added:Uploaded on 26-01-2012 by our crawler pet called "Spidey".
Swarm:0 seeders & 0 leechers
Connect: Torlock Facebook Page
Vote:You got to be logged in to vote for this torrent.
Rating:No votes yet.

Torrent Download Locations

Torrent Description

Genre:Drama
Language:English
IMDb:http://www.imdb.com/title/tt1703148/
Source:720p.BluRay.x264-7SinS Thanks!

Format : AVI
Format/Info : Audio Video Interleave
File size : 1.40 GiB
Duration : 1h 44mn
Overall bit rate : 1 920 Kbps

Video
ID : 0
Format : MPEG-4 Visual
Format profile : Advanced Simple@L5
Format settings, BVOP : 1
Format settings, QPel : No
Format settings, GMC : No warppoints
Format settings, Matrix : Default (H.263)
Codec ID : XVID
Codec ID/Hint : XviD
Duration : 1h 44mn
Bit rate : 1 475 Kbps
Width : 720 pixels
Height : 304 pixels
Display aspect ratio : 2.35:1
Frame rate : 24.000 fps
Color space : YUV
Chroma subsampling : 4:2:0
Bit depth : 8 bits
Scan type : Progressive
Compression mode : Lossy
Bits/(Pixel*Frame) : 0.281
Stream size : 1.07 GiB (77%)
Writing library : XviD 1.2.1 (UTC 2008-12-04)

Audio
ID : 1
Format : AC-3
Format/Info : Audio Coding 3
Mode extension : CM (complete main)
Codec ID : 2000
Duration : 1h 41mn
Bit rate mode : Constant
Bit rate : 448 Kbps
Channel(s) : 6 channels
Channel positions : Front: L C R, Side: L R, LFE
Sampling rate : 48.0 KHz
Bit depth : 16 bits
Compression mode : Lossy
Stream size : 325 MiB (23%)
Alignment : Aligned on interleaves
Interleave, duration : 43 ms (1.03 video frame)
Interleave, preload duration : 512 ms


Plot:
Martin, a mercenary, is sent from Europe by a mysterious biotech company to the Tasmanian wilderness on a hunt for the last Tasmanian tiger.

TRAILER:
http://www.youtube.com/watch?v=KgfB9kebFNI&feature=player_embedded






Greets:

CRYS,IMAGINE,LKRG,FXG,3Li,FLAWL3SS,TA,iLLUSiON,EMBER,ETRG,BHRG,iLLUMiNATi,MiSTERE.ViSiON,DTRG SAFCuk009,LU,TheFalcon007,MYSTiC,PrisM,Noir,WBZ,LAP,Rx,Kingdom,SAFCuk009+Fabreezy,HDLiTE,TWiZTED,ExtraTorrentRG.ELEKTRI4KA,MAGNAT,CM8
And to all the other p2p grps past and present






Thanks to all who promotes release Feel-Free !!!

Discussion

0 Responses

There are no responses yet

Add your Response

To post your comment to this torrent, please login to our site.

Torrent Files Size
The.Hunter.2011.BRRip.XviD.Ac3.Feel-Free.avi 1.4 GB
The.Hunter.2011.BRRip.XviD.Ac3.Feel-Free.nfo 3.3 KB
vlcsnap-2012-01-26-08h14m35s156.png 362.5 KB
vlcsnap-2012-01-26-08h14m54s91.png 410.9 KB
vlcsnap-2012-01-26-08h18m05s205.png 431.5 KB
vlcsnap-2012-01-26-08h19m37s94.png 244.7 KB

© 2014 TorLock - The No Fakes Torrent Site