EXTREMELY LOUD AND INCREDIBLY CLOSE (2012) DVDScr PR3DATOR RG

Torrent Details

EXTREMELY LOUD AND INCREDIBLY CLOSE (2012) DVDScr PR3DATOR RGName:EXTREMELY LOUD AND INCREDIBLY CLOSE (2012) DVDScr PR3DATOR RG.torrent
Status:
This torrent has been verified!This torrent has been verified to be real and without virusses.
Category:Movies
Size:1.5 GB in 2 files
Added:Uploaded on 18-02-2012 by our crawler pet called "Spidey".
Swarm:0 seeders & 0 leechers
Connect: Torlock Facebook Page
Vote:You got to be logged in to vote for this torrent.
Rating:No votes yet.

Torrent Download Locations

Torrent Description

IMDb: http://www.imdb.com/title/tt0477302/
SAMPLE INCLUDED.





A nine-year-old amateur inventor, Francophile, and pacifist searches New York City for the lock that matches a mysterious key left behind by his father, who died in the World Trade Center on September 11, 2001.



Director: Stephen Daldry
Writers: Eric Roth (screenplay), Jonathan Safran Foer (novel)
Stars: Thomas Horn, Tom Hanks and Sandra Bullock



--------------------
[File Info]
--------------------
EXTREMELY LOUD AND INCREDIBLY CLOSE (2012) DVDScr [MKV AC3 6ch][RoB]PR3DATOR RG

General

Unique ID : 168348648403719580577546155723716462494 (0x7EA6C532C2870C1E037BA147C20E879E)
Complete name : EXTREMELY LOUD AND INCREDIBLY CLOSE (2012) DVDScr [MKV AC3 6ch][RoB]PR3DATOR RG
Format : Matroska
File size : 1.52 GiB
Duration : 2h 9mn
Overall bit rate : 1 676 Kbps
Writing application : Lavf51.12.1
Writing library : Lavf51.12.1

Video #1

ID : 1
Format : AVC
Format/Info : Advanced Video Codec
Format profile : [email protected]
Format settings, CABAC : No
Format settings, ReFrames : 5 frames
Codec ID : V_MPEG4/ISO/AVC
Duration : 2h 9mn
Bit rate : 1 483 Kbps
Width : 720 pixels
Height : 304 pixels
Display aspect ratio : 2.35:1
Frame rate mode : Variable
Frame rate : 23.976 fps
Color space : YUV
Chroma subsampling : 4:2:0
Bit depth : 8 bits
Scan type : Progressive
Bits/(Pixel*Frame) : 0.283
Stream size : 1.34 GiB (88%)
Language : English

Audio #2

ID : 2
Format : AC-3
Format/Info : Audio Coding 3
Mode extension : CM (complete main)
Codec ID : A_AC3
Duration : 2h 9mn
Bit rate mode : Constant
Bit rate : 160 Kbps
Channel(s) : 6 channels
Channel positions : Front: L C R, Side: L R, LFE
Sampling rate : 44.1 KHz
Bit depth : 16 bits
Compression mode : Lossy
Stream size : 148 MiB (10%)
Language : English













ALWAYS LOOKiNG for SCREENERS,CAM,SiLVERS,LiNE,PRERETAiL BD/DVD. ANY REGiON 
If you'd like to help, feel free to contact us at: [email protected] 

Discussion

0 Responses

There are no responses yet

Add your Response

To post your comment to this torrent, please login to our site.

Torrent Files Size
Clip - EXTREMELY LOUD AND INCREDIBLY CLOSE (2012) DVDScr [MKV AC3 6ch][RoB]PR3DATOR RG.mkv 32.9 MB
EXTREMELY LOUD AND INCREDIBLY CLOSE (2012) DVDScr [MKV AC3 6ch][RoB]PR3DATOR RG.mkv 1.5 GB

© 2014 TorLock - The No Fakes Torrent Site