Hi buddy! You should sign up or login!
TorLockTorLock



Mahler - The Symphonies (Solti) (EAC FLAC CUE) Jobam

Torrent Details

Mahler - The Symphonies (Solti) (EAC FLAC CUE)  jobamName:Mahler - The Symphonies (Solti) (EAC FLAC CUE) jobam.torrent
Status:
This torrent has been verified!This torrent has been verified to be real and without virusses.
Category:Music
Size:3 GB in 79 files
Added:Uploaded on 24-02-2012 by our crawler pet called "Spidey".
Swarm:2 seeders & 0 leechers
Vote:You got to be logged in to vote for this torrent.
Rating:No votes yet.

Torrent Download Locations

Torrent Description
Mahler: The Symphonies - Chicago Symphony Orchestra, Solti (EAC.FLAC.CUE)



Release Date: 02/11/1992
Label: Decca Catalog #: 430804 Spars Code: ADD
Composer: Gustav Mahler
Performer: Isobel Buchanan, Mira Zakai, Helga Dernesch, Dame Kiri Te Kanawa, Helen Watts,
René Kollo, Heather Harper, Arleen Augér, Yvonne Minton,
Lucia Popp, John Shirley-Quirk, Martti Talvela
Conductor: Sir Georg Solti
Orchestra/Ensemble: Chicago Symphony Orchestra, Chicago Symphony Chorus, Glen Ellyn Children's Choir, Vienna State Opera Chorus,
Vienna Singverein, Vienna Boys' Choir

Number of Discs: 10
Recorded in: Stereo
Length: 9 Hours 42 Mins.

CD1 Total Playing Time: 1:17:09

Symphony No.1 in D

1. Langsam. Schleppend
Chicago Symphony Orchestra, Solti, (P) 1984 - 15:50
2. Kräftig bewegt
Chicago Symphony Orchestra, Solti, (P) 1984 - 7:46
3. Feierlich und gemessen, ohne zu schleppen
Chicago Symphony Orchestra, Solti, (P) 1984 - 11:40
4. Stürmisch bewegt
Chicago Symphony Orchestra, Solti, (P) 1984 - 21:00

Symphony No.2 in C minor - "Resurrection"

1. Allegro maestoso. Mit durchaus ernstem und feierlichem Ausdruck
Chicago Symphony Orchestra, Solti, (P) 1981 - 20:53

Code: EAC extraction logfile from 13. April 2007, 17:48 for CD
Gustav Mahler / The Symphonies (CD1)

Used drive : HP DVD Writer 300n Adapter: 1 ID: 0
Read mode : Secure with NO C2, accurate stream, disable cache
Read offset correction : 48
Overread into Lead-In and Lead-Out : No

Used output format : Internal WAV Routines
44.100 Hz; 16 Bit; Stereo

Other options :
Fill up missing offset samples with silence : Yes
Delete leading and trailing silent blocks : No
Native Win32 interface for Win NT & 2000


Track 1
Filename E:The Symphonies (CD1)1 - Symphony No. 1 In D Major; I. Langsam. Schleppend. Wie Ein Naturlaut.wav

Pre-gap length 0:00:02.42

Peak level 99.5 %
Track quality 100.0 %
Test CRC 4F38B87F
Copy CRC 4F38B87F
Copy OK

Track 2
Filename E:The Symphonies (CD1)2 - Symphony No. 1 In D Major; II. Kräftig bewegt, Doch Nicht Zu Schnell.wav

Pre-gap length 0:00:01.80

Peak level 97.3 %
Track quality 99.9 %
Test CRC 5B6D79A8
Copy CRC 5B6D79A8
Copy OK

Track 3
Filename E:The Symphonies (CD1)3 - Symphony No. 1 In D Major; III. Feierlich Und Gemessen, Ohne Zu Schleppen.wav

Pre-gap length 0:00:03.96

Peak level 29.1 %
Track quality 100.0 %
Test CRC F96F0A75
Copy CRC F96F0A75
Copy OK

Track 4
Filename E:The Symphonies (CD1)4 - Symphony No. 1 In D Major; IV. Stürmisch Bewegt.wav

Peak level 98.5 %
Track quality 99.9 %
Test CRC 0126603C
Copy CRC 0126603C
Copy OK

Track 5
Filename E:The Symphonies (CD1)5 - Symphony No. 2 ''Resurrection''; I. Allegro Maestoso.wav

Pre-gap length 0:00:11.00

Peak level 96.2 %
Track quality 100.0 %
Test CRC 694B2F97
Copy CRC 694B2F97
Copy OK

No errors occured


End of status report


CD2 Total Playing Time: 1:00:34

2. Andante moderato. Sehr gemächlich
Chicago Symphony Orchestra, Solti, (P) 1981 - 11:20
3. Scherzo: In ruhig fliessender Bewegung
Chicago Symphony Orchestra, Solti, (P) 1981 - 10:22
4. "O Röschen rot! Der Mensch liegt in grösster Not!" (Sehr feierlich aber schlicht) Text from Des Knaben...
Zakai, Chicago Symphony Orchestra, Solti, (P) 1981 - 4:51
5. Im Tempo des Scherzo - Langsam misterioso
Chicago Symphony Chorus, Zakai, Buchanan, Chicago Symphony Orchestra, Solti, (P) 1981 - 34:01

Code: EAC extraction logfile from 13. April 2007, 18:28 for CD
Gustav Mahler / The Symphonies (CD2)

Used drive : HP DVD Writer 300n Adapter: 1 ID: 0
Read mode : Secure with NO C2, accurate stream, disable cache
Read offset correction : 48
Overread into Lead-In and Lead-Out : No

Used output format : Internal WAV Routines
44.100 Hz; 16 Bit; Stereo

Other options :
Fill up missing offset samples with silence : Yes
Delete leading and trailing silent blocks : No
Native Win32 interface for Win NT & 2000


Track 1
Filename E:The Symphonies (CD2)1 - Symphony No. 2 (Conclusion); I. Andante Moderato.wav

Pre-gap length 0:00:02.44

Peak level 65.5 %
Track quality 99.9 %
Test CRC 7F6C0D76
Copy CRC 7F6C0D76
Copy OK

Track 2
Filename E:The Symphonies (CD2)2 - Symphony No. 2 (Conclusion); II. In Ruhig Fliessender Bewegung.wav

Pre-gap length 0:00:04.80

Peak level 95.3 %
Track quality 100.0 %
Test CRC 9DD59F26
Copy CRC 9DD59F26
Copy OK

Track 3
Filename E:The Symphonies (CD2)3 - Symphony No. 2 (Conclusion); III. Urlicht. Sehr Feierlich, Aber Schlicht.wav

Peak level 37.3 %
Track quality 100.0 %
Test CRC 721CEE01
Copy CRC 721CEE01
Copy OK

Track 4
Filename E:The Symphonies (CD2)4 - Symphony No. 2 (Conclusion); IV. In Tempo des Scherzo.wav

Peak level 94.8 %
Track quality 99.9 %
Test CRC C9CE8619
Copy CRC C9CE8619
Copy OK

No errors occured


End of status report


CD 3 Total Playing Time: 1:11:51

Symphony No.3 in D minor

Part 1

1. Kräftig. Entscheiden
Chicago Symphony Orchestra, Solti, (P) 1983 - 30:50

Part 2

2. Tempo di minuetto. Sehr mäßig
Chicago Symphony Orchestra, Solti, (P) 1983 - 9:50
3. Comodo. Scherzando. Ohne Hast
Chicago Symphony Orchestra, Solti, (P) 1983 - 16:50
4. Sehr langsam. Misterioso: "O Mensch! Gib acht!" 'O Mensch! Gib acht'
Dernesch, Chicago Symphony Orchestra, Solti, (P) 1983 - 9:57
5. Lustig im Tempo und keck im Ausdruck: "Bimm Bamm. Es sungen drei Engel"
Dernesch, Chicago Symphony Orchestra Womens Chorus, Glen Ellyn Childrens Chorus, Chicago Symphony Orchestra, Solti, (P) 1983 - 4:24

Code: Exact Audio Copy V0.99 prebeta 4 from 23. January 2008

EAC extraction logfile from 14. December 2008, 11:22

Gustav Mahler / The Symphonies (CD3)

Used drive : TSSTcorpCDRW/DVD TSL462C Adapter: 1 ID: 0

Read mode : Secure
Utilize accurate stream : Yes
Defeat audio cache : Yes
Make use of C2 pointers : No

Read offset correction : 6
Overread into Lead-In and Lead-Out : No
Fill up missing offset samples with silence : Yes
Delete leading and trailing silent blocks : No
Null samples used in CRC calculations : Yes
Used interface : Native Win32 interface for Win NT & 2000
Gap handling : Appended to previous track

Used output format : Internal WAV Routines
Sample format : 44.100 Hz; 16 Bit; Stereo


TOC of the extracted CD

Track | Start | Length | Start sector | End sector
---------------------------------------------------------
1 | 0:00.32 | 30:51.65 | 32 | 138921
2 | 30:52.22 | 9:53.53 | 138922 | 183449
3 | 40:46.00 | 16:53.25 | 183450 | 259449
4 | 57:39.25 | 9:56.40 | 259450 | 304189
5 | 67:35.65 | 4:24.07 | 304190 | 323996


Track 1

Filename C:The Symphonies (CD3)1-Symphony No. 3 (Beginning)- I. Kraftig Entschieden.wav

Pre-gap length 0:00:02.42

Peak level 98.7 %
Track quality 100.0 %
Test CRC 5C894818
Copy CRC 5C894818
Track not present in AccurateRip database
Copy OK

Track 2

Filename C:The Symphonies (CD3)2-Symphony No. 3 (Beginning)- II. Tempo di Menuetto. Sehre massig.wav

Pre-gap length 0:00:02.26

Peak level 53.9 %
Track quality 99.9 %
Test CRC C7BCC067
Copy CRC C7BCC067
Track not present in AccurateRip database
Copy OK

Track 3

Filename C:The Symphonies (CD3)3-Symphony No. 3 (Beginning)- III. Comodo. Scherzando. Ohne Hast.wav

Pre-gap length 0:00:04.13

Peak level 94.0 %
Track quality 100.0 %
Test CRC 6FABA224
Copy CRC 6FABA224
Track not present in AccurateRip database
Copy OK

Track 4

Filename C:The Symphonies (CD3)4-Symphony No. 3 (Beginning)- IV. Sehr Langsam. Misterioso.wav

Pre-gap length 0:00:03.13

Peak level 42.7 %
Track quality 100.0 %
Test CRC 140AB70B
Copy CRC 140AB70B
Track not present in AccurateRip database
Copy OK

Track 5

Filename C:The Symphonies (CD3)5-Symphony No. 3 (Beginning)- V. Lustig im Tempo und keck im Ausdruck.wav

Peak level 97.6 %
Track quality 100.0 %
Test CRC 1C95D8D5
Copy CRC 1C95D8D5
Track not present in AccurateRip database
Copy OK


None of the tracks are present in the AccurateRip database

No errors occurred

End of status report


CD 4

Part 2

6. Langsam. Ruhevoll. Empfunden
Chicago Symphony Orchestra, Solti, (P) 1983 - 20:54

Symphony No.4 in G Total Playing Time: 1:15:39

1. Bedächtig. Nicht eilen - Recht gemächlich
Chicago Symphony Orchestra, Solti, (P) 1984 - 16:24
2. In gemächlicher Bewegung. Ohne Hast
Chicago Symphony Orchestra, Solti, (P) 1984 - 9:32
3. Ruhevoll (Poco adagio)
Chicago Symphony Orchestra, Solti, (P) 1984 - 20:09
4. Sehr behaglich: "Wir genießen die himmlischen Freuden"
Kanawa, Chicago Symphony Orchestra, Solti, (P) 1984 - 8:40

Code: EAC extraction logfile from 13. April 2007, 19:33 for CD
Gustav Mahler / The Symphonies (CD4)

Used drive : HP DVD Writer 300n Adapter: 1 ID: 0
Read mode : Secure with NO C2, accurate stream, disable cache
Read offset correction : 48
Overread into Lead-In and Lead-Out : No

Used output format : Internal WAV Routines
44.100 Hz; 16 Bit; Stereo

Other options :
Fill up missing offset samples with silence : Yes
Delete leading and trailing silent blocks : No
Native Win32 interface for Win NT & 2000


Track 1
Filename E:The Symphonies (CD4)1 - Symphony No. 3 (Conclusion); VI. Langsam. Ruhevoll. Empfunden.wav

Pre-gap length 0:00:02.42

Peak level 94.2 %
Track quality 99.9 %
Test CRC 80D2951F
Copy CRC 80D2951F
Copy OK

Track 2
Filename E:The Symphonies (CD4)2 - Symphony No. 4; I. Bedächtig. Nicht Eilen.wav

Peak level 96.3 %
Track quality 99.8 %
Test CRC C73CEBBC
Copy CRC C73CEBBC
Copy OK

Track 3
Filename E:The Symphonies (CD4)3 - Symphony No. 4; II. In Gemächlicher Bewegung. Ohne Hast.wav

Peak level 76.7 %
Track quality 99.9 %
Test CRC ABD85A9D
Copy CRC ABD85A9D
Copy OK

Track 4
Filename E:The Symphonies (CD4)4 - Symphony No. 4; III. Ruhevoll.wav

Peak level 96.2 %
Track quality 99.9 %
Test CRC 006761F8
Copy CRC 006761F8
Copy OK

Track 5
Filename E:The Symphonies (CD4)5 - Symphony No. 4; IV. Sehr Behaglich.wav

Peak level 89.5 %
Track quality 100.0 %
Test CRC BC7854CB
Copy CRC BC7854CB
Copy OK

No errors occured


End of status report


CD 5 Total Playing Time: 1:05:52

Symphony No.5 in C sharp minor

1. Trauermarsch (In gemessenem Schritt. Streng. Wie ein Kondukt - Plötzlich schneller. Leidenschaftlich. Wild - Tempo I)
Chicago Symphony Orchestra, Solti, (P) 1970 - 11:54
2. Stürmisch bewegt. Mit größter Vehemenz - Bedeutend langsamer - Tempo I subito
Chicago Symphony Orchestra, Solti, (P) 1970 - 13:49
3. Scherzo (Kräftig, nicht zu schnell)
Clevenger, Chicago Symphony Orchestra, Solti, (P) 1970 - 16:39
4. Adagietto (Sehr langsam)
Chicago Symphony Orchestra, Solti, (P) 1970 - 9:51
5. Rondo-Finale (Allegro)
Chicago Symphony Orchestra, Solti, (P) 1970 - 13:39

Code: EAC extraction logfile from 13. April 2007, 20:29 for CD
Gustav Mahler / The Symphonies (CD5)

Used drive : HP DVD Writer 300n Adapter: 1 ID: 0
Read mode : Secure with NO C2, accurate stream, disable cache
Read offset correction : 48
Overread into Lead-In and Lead-Out : No

Used output format : Internal WAV Routines
44.100 Hz; 16 Bit; Stereo

Other options :
Fill up missing offset samples with silence : Yes
Delete leading and trailing silent blocks : No
Native Win32 interface for Win NT & 2000


Track 1
Filename E:The Symphonies (CD5)1 - Symphony No. 5; I. Trauermarsch.wav

Pre-gap length 0:00:02.44

Peak level 97.2 %
Track quality 100.0 %
Test CRC 53FA715A
Copy CRC 53FA715A
Copy OK

Track 2
Filename E:The Symphonies (CD5)2 - Symphony No. 5; II. Stuermisch Bewegt. Mit Grösster Vehemenz.wav

Pre-gap length 0:00:02.90

Peak level 98.1 %
Track quality 100.0 %
Test CRC 478C4C6E
Copy CRC 478C4C6E
Copy OK

Track 3
Filename E:The Symphonies (CD5)3 - Symphony No. 5; III. Scherzo; Kraftig, Nicht Zu Schnell.wav

Pre-gap length 0:00:09.70

Peak level 97.9 %
Track quality 100.0 %
Test CRC 54508BC1
Copy CRC 54508BC1
Copy OK

Track 4
Filename E:The Symphonies (CD5)4 - Symphony No. 5; IV. Adagietto- Sehr Langsam.wav

Pre-gap length 0:00:04.13

Peak level 68.0 %
Track quality 100.0 %
Test CRC 9CBF507A
Copy CRC 9CBF507A
Copy OK

Track 5
Filename E:The Symphonies (CD5)5 - Symphony No. 5; V. Rondo-Finale; Allegro.wav

Peak level 100.0 %
Track quality 100.0 %
Test CRC 9896A1E4
Copy CRC 9896A1E4
Copy OK

No errors occured


End of status report


CD 6 Total Playing Time: 1:16:49

Symphony No.6 in A minor

1. Allegro energico, ma non troppo. Heftig aber Markig
Chicago Symphony Orchestra, Solti, (P) 1970 - 21:06
2. Scherzo (Wuchtig)
Chicago Symphony Orchestra, Solti, (P) 1970 - 12:33
3. Andante moderato
Chicago Symphony Orchestra, Solti, (P) 1970 - 15:30
4. Finale (Allegro moderato)
Chicago Symphony Orchestra, Solti, (P) 1970 - 27:40

Code: EAC extraction logfile from 13. April 2007, 20:57 for CD
Gustav Mahler / The Symphonies (CD6)

Used drive : HP DVD Writer 300n Adapter: 1 ID: 0
Read mode : Secure with NO C2, accurate stream, disable cache
Read offset correction : 48
Overread into Lead-In and Lead-Out : No

Used output format : Internal WAV Routines
44.100 Hz; 16 Bit; Stereo

Other options :
Fill up missing offset samples with silence : Yes
Delete leading and trailing silent blocks : No
Native Win32 interface for Win NT & 2000


Track 1
Filename E:The Symphonies (CD6)1 - Symphony No. 6; I. Allegro Energico, Ma Non Troppo.wav

Pre-gap length 0:00:02.42

Peak level 97.9 %
Track quality 100.0 %
Test CRC 30646022
Copy CRC 30646022
Copy OK

Track 2
Filename E:The Symphonies (CD6)2 - Symphony No. 6; II. Scherzo; Wuchtig.wav

Pre-gap length 0:00:02.69

Peak level 89.7 %
Track quality 100.0 %
Test CRC B683371A
Copy CRC B683371A
Copy OK

Track 3
Filename E:The Symphonies (CD6)3 - Symphony No. 6; III. Andante.wav

Pre-gap length 0:00:01.76

Peak level 82.4 %
Track quality 100.0 %
Test CRC 5C119163
Copy CRC 5C119163
Copy OK

Track 4
Filename E:The Symphonies (CD6)4 - Symphony No. 6; IV. Finale; Allegro Moderato.wav

Pre-gap length 0:00:02.33

Peak level 100.0 %
Track quality 100.0 %
Test CRC 5EE4B928
Copy CRC 5EE4B928
Copy OK

No errors occured


End of status report


CD 7 Total Playing Time: 1:01:22

Symphony No.7 in E minor

1. Langsam - Allegro
Chicago Symphony Orchestra, Solti, (P) 1971 - 21:36
2. Nachtmusik (Allegro moderato)
Chicago Symphony Orchestra, Solti, (P) 1971 - 15:46
3. Scherzo
Chicago Symphony Orchestra, Solti, (P) 1971 - 9:16
4. Nachtmusik (Andante amoroso)
Chicago Symphony Orchestra, Solti, (P) 1971 - 14:44

Code: EAC extraction logfile from 13. April 2007, 21:21 for CD
Gustav Mahler / The Symphonies (CD7)

Used drive : HP DVD Writer 300n Adapter: 1 ID: 0
Read mode : Secure with NO C2, accurate stream, disable cache
Read offset correction : 48
Overread into Lead-In and Lead-Out : No

Used output format : Internal WAV Routines
44.100 Hz; 16 Bit; Stereo

Other options :
Fill up missing offset samples with silence : Yes
Delete leading and trailing silent blocks : No
Native Win32 interface for Win NT & 2000


Track 1
Filename E:The Symphonies (CD7)1 - Symphony No. 7; I. Langsam - Allegro.wav

Pre-gap length 0:00:02.44

Peak level 97.0 %
Track quality 100.0 %
Test CRC 25DC2F82
Copy CRC 25DC2F82
Copy OK

Track 2
Filename E:The Symphonies (CD7)2 - Symphony No. 7; II. Nachtmusik I; Allegro Moderato.wav

Pre-gap length 0:00:03.60

Peak level 68.5 %
Track quality 100.0 %
Test CRC 169F7298
Copy CRC 169F7298
Copy OK

Track 3
Filename E:The Symphonies (CD7)3 - Symphony No. 7; III. Scherzo.wav

Pre-gap length 0:00:03.24

Peak level 92.9 %
Track quality 100.0 %
Test CRC 5F3A9E04
Copy CRC 5F3A9E04
Copy OK

Track 4
Filename E:The Symphonies (CD7)4 - Symphony No. 7; IV. Nachtmusik II; Andante Amoroso.wav

Pre-gap length 0:00:03.26

Peak level 84.2 %
Track quality 100.0 %
Test CRC 9F2DDCE6
Copy CRC 9F2DDCE6
Copy OK

No errors occured


End of status report


CD 8 Total Playing Time: 1:04:48

Symphony No.7 in E minor

1. Rondo - Finale (Allegro ordinario - Allegro moderato ma energico)
Chicago Symphony Orchestra, Solti, (P) 1971 - 16:32

Symphony No.9 in D

2. Andante comodo
Chicago Symphony Orchestra, Solti, (P) 1983 - 30:16
3. Im Tempo eines gemächlichen Ländler. Etwas täppisch und sehr derb - Poco più mosso subito - Ländler, ganz langsam
Chicago Symphony Orchestra, Solti, (P) 1983 - 18:00

Code: Exact Audio Copy V0.99 prebeta 4 from 23. January 2008

EAC extraction logfile from 14. December 2008, 12:54

Gustav Mahler / The Symphonies (CD8)

Used drive : TSSTcorpCDRW/DVD TSL462C Adapter: 1 ID: 0

Read mode : Secure
Utilize accurate stream : Yes
Defeat audio cache : Yes
Make use of C2 pointers : No

Read offset correction : 6
Overread into Lead-In and Lead-Out : No
Fill up missing offset samples with silence : Yes
Delete leading and trailing silent blocks : No
Null samples used in CRC calculations : Yes
Used interface : Native Win32 interface for Win NT & 2000
Gap handling : Appended to previous track

Used output format : Internal WAV Routines
Sample format : 44.100 Hz; 16 Bit; Stereo


TOC of the extracted CD

Track | Start | Length | Start sector | End sector
---------------------------------------------------------
1 | 0:00.32 | 16:41.70 | 32 | 75176
2 | 16:42.27 | 30:23.23 | 75177 | 211924
3 | 47:05.50 | 17:59.70 | 211925 | 292919


Track 1

Filename C:The Symphonies (CD8)1-Symphony No. 7 (Conslusion)- V. Rondo-Finale.wav

Pre-gap length 0:00:02.42

Peak level 95.5 %
Track quality 100.0 %
Test CRC 2CF49680
Copy CRC 2CF49680
Track not present in AccurateRip database
Copy OK

Track 2

Filename C:The Symphonies (CD8)2-Symphony No, 9 (Beginning)- I. Andante comodo.wav

Pre-gap length 0:00:09.62

Peak level 98.8 %
Track quality 100.0 %
Test CRC 003BA01C
Copy CRC 003BA01C
Track not present in AccurateRip database
Copy OK

Track 3

Filename C:The Symphonies (CD8)3-Symphony No. 9 (Beginning)- II. Im Tempo eines gemachlichen Landlers.wav

Pre-gap length 0:00:07.00

Peak level 81.2 %
Track quality 100.0 %
Test CRC DBF03D2C
Copy CRC DBF03D2C
Track not present in AccurateRip database
Copy OK


None of the tracks are present in the AccurateRip database

No errors occurred

End of status report


CD9 Total Playing Time: 1:00:44

Symphony No.9 in D

1.3. Rondo. Burleske (Allegro assai. Sehr trotzig - Presto)
Chicago Symphony Orchestra, Solti, (P) 1983 - 12:31
2.4. Adagio (Sehr langsam)
Chicago Symphony Orchestra, Solti, (P) 1983 - 24:47

Symphony No.8 in E flat - "Symphony of a Thousand"

Part One: Hymnus "Veni creator spiritus"
3."Veni creator spiritus"
Wiener Staatsopernchor, Wiener Singverein, Chicago Symphony Orchestra, Solti, (P) 1972 - 1:30
4."Imple superna gratia"
Harper, Popp, Minton, Watts, Kollo, Shirley-Quirk, Talvela, Wiener Singverein, Wiener Staatsopernchor, Chicago Symphony Orchestra, Solti, (P) 1972 - 4:26
5."Infirma nostri corporis"
Harper, Popp, Minton, Watts, Kollo, Shirley-Quirk, Talvela, Wiener Singverein, Wiener Staatsopernchor, Chicago Symphony Orchestra, Solti, (P) 1972 - 6:20
6."Accende lumen sensibus"
Harper, Popp, Minton, Watts, Kollo, Shirley-Quirk, Talvela, Wiener Sängerknaben, Wiener Singverein, Wiener Staatsopernchor, Chicago Symphony Orchestra, Solti, (P) 1972 - 4:44
7."Veni, Creator...Da gaudiorum praemia"
Harper, Popp, Minton, Watts, Kollo, Shirley-Quirk, Talvela, Wiener Singverein, Wiener Sängerknaben, Wiener Staatsopernchor, Chicago Symphony Orchestra, Solti, (P) 1972 - 3:49
8."Gloria sit Patri Domino"
Harper, Popp, Watts, Minton, Kollo, Shirley-Quirk, Talvela, Wiener Singverein, Wiener Sängerknaben, Wiener Staatsopernchor, Chicago Symphony Orchestra, Solti, (P) 1972 - 2:37

Code: EAC extraction logfile from 13. April 2007, 22:30 for CD
Gustav Mahler / The Symphonies (CD9)

Used drive : HP DVD Writer 300n Adapter: 1 ID: 0
Read mode : Secure with NO C2, accurate stream, disable cache
Read offset correction : 48
Overread into Lead-In and Lead-Out : No

Used output format : Internal WAV Routines
44.100 Hz; 16 Bit; Stereo

Other options :
Fill up missing offset samples with silence : Yes
Delete leading and trailing silent blocks : No
Native Win32 interface for Win NT & 2000


Track 1
Filename E:The Symphonies (CD9)1 - Symphony No. 9 (Conclusion); III. Rondo-Burleske. Allegro Assai. Sehr Trotzig.wav

Pre-gap length 0:00:02.42

Peak level 97.3 %
Track quality 100.0 %
Test CRC 9B4C9C3E
Copy CRC 9B4C9C3E
Copy OK

Track 2
Filename E:The Symphonies (CD9)2 - Symphony No. 9 (Conclusion); IV. Adagio. Sehr Langsam Und Noch Zurückhaltend.wav

Pre-gap length 0:00:06.46

Peak level 93.9 %
Track quality 100.0 %
Test CRC 5D54CDB1
Copy CRC 5D54CDB1
Copy OK

Track 3
Filename E:The Symphonies (CD9)3 - Symphony No. 8, Part I; I. Hymnus- Veni, Creator Spiritus.wav

Pre-gap length 0:00:09.53

Peak level 96.1 %
Track quality 100.0 %
Test CRC 221CD786
Copy CRC 221CD786
Copy OK

Track 4
Filename E:The Symphonies (CD9)4 - Symphony No. 8, Part I; II. Hymnus- Veni, Creator Spiritus.wav

Peak level 91.9 %
Track quality 100.0 %
Test CRC F0014923
Copy CRC F0014923
Copy OK

Track 5
Filename E:The Symphonies (CD9)5 - Symphony No. 8, Part I; III. Hymnus- Veni, Creator Spiritus.wav

Peak level 65.2 %
Track quality 99.8 %
Test CRC 6DB4518D
Copy CRC 6DB4518D
Copy OK

Track 6
Filename E:The Symphonies (CD9)6 - Symphony No. 8, Part I; IV. Hymnus- Veni, Creator Spiritus.wav

Peak level 94.1 %
Track quality 99.5 %
Test CRC 06FBA71C
Copy CRC 06FBA71C
Copy OK

Track 7
Filename E:The Symphonies (CD9)7 - Symphony No. 8, Part I; V. Hymnus- Veni, Creator Spiritus.wav

Peak level 93.8 %
Track quality 99.2 %
Test CRC 2CBF26A9
Copy CRC 2CBF26A9
Copy OK

Track 8
Filename E:The Symphonies (CD9)8 - Symphony No. 8, Part I; VI. Hymnus- Veni, Creator Spiritus.wav

Peak level 93.1 %
Track quality 99.2 %
Test CRC 2F3E5A72
Copy CRC 2F3E5A72
Copy OK

No errors occured


End of status report


CD 10 Total Playing Time: 56:21

Part Two: Final scene from Goethe's "Faust"

1.Poco adagio: Waldung, sie schwankt heran
Wiener Singverein, Wiener Staatsopernchor, Chicago Symphony Orchestra, Solti, (P) 1972 - 14:14
2."Ewiger Wonnebrand"
Shirley-Quirk, Chicago Symphony Orchestra, Solti, (P) 1972 - 1:35
3."Wie Felsenabgrund mir zu Füßen"
Talvela, Chicago Symphony Orchestra, Solti, (P) 1972 - 4:44
4."Gerettet ist das edle Glied"
Wiener Singverein, Wiener Staatsopernchor, Wiener Sängerknaben, Chicago Symphony Orchestra, Solti, (P) 1972 - 3:00
5."Uns bleibt ein Erdenrest"
Minton, Kollo, Wiener Sängerknaben, Wiener Singverein, Wiener Staatsopernchor, Chicago Symphony Orchestra, Solti, (P) 1972 - 2:59
6."Höchste Herrscherin der Welt"
Popp, Kollo, Wiener Singverein, Wiener Staatsopernchor, Chicago Symphony Orchestra, Solti, (P) 1972 - 8:08
7."Bei der Liebe, die den Fussen"
Harper, Minton, Watts, Chicago Symphony Orchestra, Solti, (P) 1972 - 4:54
8."Neige, neige, du Ohnegleiche"
Popp, Augér, Wiener Sängerknaben, Wiener Singverein, Chicago Symphony Orchestra, Solti, (P) 1972 - 5:18
9."Blicket auf zum Retterblick"
Kollo, Wiener Singverein, Wiener Staatsopernchor, Wiener Sängerknaben, Chicago Symphony Orchestra, Solti, (P) 1972 - 6:01
10."Alles Vergängliche"
Harper, Popp, Minton, Watts, Kollo, Shirley-Quirk, Talvela, Wiener Sängerknaben, Wiener Singverein, Wiener Staatsopernchor, Chicago Symphony Orchestra, Solti, (P) 1972 - 5:28

Code: EAC extraction logfile from 13. April 2007, 23:27 for CD
Gustav Mahler / The Symphonies (CD10)

Used drive : HP DVD Writer 300n Adapter: 1 ID: 0
Read mode : Secure with NO C2, accurate stream, disable cache
Read offset correction : 48
Overread into Lead-In and Lead-Out : No

Used output format : Internal WAV Routines
44.100 Hz; 16 Bit; Stereo

Other options :
Fill up missing offset samples with silence : Yes
Delete leading and trailing silent blocks : No
Native Win32 interface for Win NT & 2000


Track 1
Filename E:The Symphonies (CD10)1 - 03 - Symphony No. 8, Part II; Final Scene From Goethe's Faust Part II; Waldung, Sie Schwankt Heran.wav

Pre-gap length 0:00:02.44

Peak level 84.4 %
Track quality 100.0 %
Test CRC 7381151D
Copy CRC 7381151D
Copy OK

Track 2
Filename E:The Symphonies (CD10)2 - 03 - Symphony No. 8, Part II; Final Scene From Goethe's Faust Part II; Ewiger Wonnebrand.wav

Peak level 86.2 %
Track quality 100.0 %
Test CRC 6FA03CE7
Copy CRC 6FA03CE7
Copy OK

Track 3
Filename E:The Symphonies (CD10)3 - 03 - Symphony No. 8, Part II; Final Scene From Goethe's Faust Part II; Wie Felsenabgrund Mir Zu Füßen.wav

Peak level 83.3 %
Track quality 100.0 %
Test CRC 800D65F4
Copy CRC 800D65F4
Copy OK

Track 4
Filename E:The Symphonies (CD10)4 - 03 - Symphony No. 8, Part II; Final Scene From Goethe's Faust Part II; Gerettet Ist Das Edle Glied.wav

Peak level 88.7 %
Track quality 100.0 %
Test CRC 2CEC6227
Copy CRC 2CEC6227
Copy OK

Track 5
Filename E:The Symphonies (CD10)5 - 03 - Symphony No. 8, Part II; Final Scene From Goethe's Faust Part II; Uns Bleibt Ein Erdenrest Hier Ist Die Aussicht Frei.wav

Peak level 94.4 %
Track quality 100.0 %
Test CRC 378137A0
Copy CRC 378137A0
Copy OK

Track 6
Filename E:The Symphonies (CD10)6 - 03 - Symphony No. 8, Part II; Final Scene From Goethe's Faust Part II; Höchste Herrscherin Der Welt - Dir, Der Unberührbaren.wav

Peak level 82.1 %
Track quality 100.0 %
Test CRC 901E5E0B
Copy CRC 901E5E0B
Copy OK

Track 7
Filename E:The Symphonies (CD10)7 - 03 - Symphony No. 8, Part II; Final Scene From Goethe's Faust Part II; Bei Der Liebe, Die Den Füßen.wav

Peak level 96.9 %
Track quality 100.0 %
Test CRC A65E3A68
Copy CRC A65E3A68
Copy OK

Track 8
Filename E:The Symphonies (CD10)8 - 03 - Symphony No. 8, Part II; Final Scene From Goethe's Faust Part II; Neige, Neige, Du Ohnegleiche.wav

Peak level 85.5 %
Track quality 99.9 %
Test CRC CCE702C3
Copy CRC CCE702C3
Copy OK

Track 9
Filename E:The Symphonies (CD10)9 - 03 - Symphony No. 8, Part II; Final Scene From Goethe's Faust Part II; Blicket Auf Zum Retterblick.wav

Peak level 90.9 %
Track quality 100.0 %
Test CRC 09C6F972
Copy CRC 09C6F972
Copy OK

Track 10
Filename E:The Symphonies (CD10)10 - 03 - Symphony No. 8, Part II; Final Scene From Goethe's Faust Part II; Alles Vergängliche.wav

Peak level 96.6 %
Track quality 100.0 %
Test CRC 3B12AE17
Copy CRC 3B12AE17
Copy OK

No errors occured


End of status r
Discussion

0 Responses

There are no responses yet

Add your Response

To post your comment to this torrent, please login to our site.

Torrent Files Size
back.jpg 2.6 MB
booklet.pdf 77.9 MB
CD01/01 - Symphony No. 1 in D major_ I. Langsam. Schleppend. Wie ein Naturlaut...flac 62.1 MB
CD01/02 - Symphony No. 1 in D major_ II. Kräftig bewegt, doch nicht zu schnell - Trio...flac 34.8 MB
CD01/03 - Symphony No. 1 in D major_ III. Feierlich und gemessen, ohne zu schleppen.flac 36.2 MB
CD01/04 - Symphony No. 1 in D major_ IV. Stürmisch bewegt.flac 99.2 MB
CD01/05 - Symphony No. 2 in C minor_ I. Allegro maestoso. Mit durchaus ernstem...flac 88.1 MB
CD01/CD01.CUE 1.4 KB
CD01/CD01.log 1.9 KB
CD02/01 - Symphony No. 2 in C minor_ II. Andante moderato. Sehr gemächlich.flac 44.6 MB
CD02/02 - Symphony No. 2 in C minor_ III. In ruhig fließender Bewegung.flac 44 MB
CD02/03 - Symphony No. 2 in C minor_ IV. _Urlicht_. Sehr feierlich, aber schlicht..flac 16.7 MB
CD02/04 - Symphony No. 2 in C minor_ V. Im Tempo des Scherzos. Wild herausfahrend.flac 146.2 MB
CD02/CD02.CUE 1.1 KB
CD02/CD02.log 1.6 KB
CD03/01 - Symphony No. 3 in D minor_ I. Kräftig. Entschieden.flac 132.6 MB
CD03/02 - Symphony No. 3 in D minor_ II. Tempo di Menuetto. Sehr mäßig.flac 38.7 MB
CD03/03 - Symphony No. 3 in D minor_ III. Comodo. Scherzando. Ohne Hast.flac 64 MB
CD03/04 - Symphony No. 3 in D minor_ IV. Sehr langsam. Misterioso. Durchaus ppp.flac 30.4 MB
CD03/05 - Symphony No. 3 in D minor_ V. Lustig im Tempo und keck im Ausdruck.flac 18.9 MB
CD03/CD03.cue 1.3 KB
CD03/CD03.log 2.9 KB
CD04/01 - Symphony No. 3 in D minor_ VI. Langsam. Ruhevoll. Empfunden.flac 84.6 MB
CD04/02 - Symphony No. 4 in G major_ I. Bedächtig. Nicht eilen.flac 70.8 MB
CD04/03 - Symphony No. 4 in G major_ II. In gemächlicher Bewegung. Ohne Hast.flac 37.5 MB
CD04/04 - Symphony No. 4 in G major_ III. Ruhevoll. Poco adagio.flac 80.5 MB
CD04/05 - Symphony No. 4 in G major_ IV. Sehr behaglich.flac 32.1 MB
CD04/CD04.CUE 1.2 KB
CD04/CD04.log 1.7 KB
CD05/01 - Symphony No. 5_ I. Trauermarsch. In gemessenem schritt. Streng...flac 53.2 MB
CD05/02 - Symphony No. 5_ II. Stürmisch bewegt. Mit größter Vehemenz.flac 67.3 MB
CD05/03 - Symphony No. 5_ III. Scherzo. Kräftig, nicht zu schnell.flac 73.7 MB
CD05/04 - Symphony No. 5_ IV. Adagietto. Sehr langsam.flac 40.3 MB
CD05/05 - Symphony No. 5_ V. Rondo-Finale. Allegro - Allegro giocoso. Frisch.flac 68.5 MB
CD05/CD05.CUE 1.2 KB
CD05/CD05.log 1.8 KB
CD06/01 - Symphony No. 6 in A minor_ I. Allegro energico, ma non troppo...flac 109.7 MB
CD06/02 - Symphony No. 6 in A minor_ II. Scherzo. Wuchtig.flac 53.9 MB
CD06/03 - Symphony No. 6 in A minor_ III. Andante moderato.flac 67 MB
CD06/04 - Symphony No. 6 in A minor_ IV. Finale. Allegro moderato - Allegro...flac 138 MB
CD06/CD06.CUE 994 B
CD06/CD06.log 1.6 KB
CD07/01 - Symphony No. 7_ I. Langsam (Adagio). Nicht schleppen - Allegro...flac 109 MB
CD07/02 - Symphony No. 7_ II. Nachtmusik. Allegro moderato.flac 60.5 MB
CD07/03 - Symphony No. 7_ III. Scherzo. Schattenhaft - Trio.flac 39.2 MB
CD07/04 - Symphony No. 7_ IV. Nachtmusik. Andante amoroso.flac 58 MB
CD07/CD07.CUE 1006 B
CD07/CD07.log 1.6 KB
CD08/01 - Symphony No. 7_ V. Rondo-Finale. Tempo I (Allegro ordinario)...flac 82.1 MB
CD08/02 - Symphony No. 9_ I. Andante comodo.flac 124.9 MB
CD08/03 - Symphony No. 9_ II. Im Tempo eines gemächlichen Ländlers...flac 72.8 MB
CD08/CD08.cue 805 B
CD08/CD08.log 2.2 KB
CD09/01 - Symphony No. 9_ III. Rondo-Burleske. Allegro assai. Sehr trotzig.flac 62.8 MB
CD09/02 - Symphony No. 9_ IV. Adagio. Sehr langsam und noch zurückhaltend.flac 100.7 MB
CD09/03 - Symphony No. 8 in E-flat major_ Part I _Hymnus _Veni, Creator Spiritus...flac 8 MB
CD09/04 - Symphony No. 8 in E-flat major_ Part I _Hymnus_ Veni, Creator Spiritus...flac 21.9 MB
CD09/05 - Symphony No. 8 in E-flat major_ Part I _Hymnus_ Veni, Creator Spiritus...flac 29.3 MB
CD09/06 - Symphony No. 8 in E-flat major_ Part I _Hymnus_ Veni, Creator Spiritus...flac 29.1 MB
CD09/07 - Symphony No. 8 in E-flat major_ Part I _Hymnus_ Veni, Creator Spiritus...flac 21.3 MB
CD09/08 - Symphony No. 8 in E-flat major_ Part I _Hymnus_ Veni, Creator Spiritus...flac 14.9 MB
CD09/CD09.CUE 2 KB
CD09/CD09.log 2.6 KB
CD10/01 - Symphony No. 8 in E-flat major_ Part II. Schlußszene aus Goethes _Faust II...flac 60.5 MB
CD10/02 - Symphony No. 8 in E-flat major_ Part II. Schlußszene aus Goethes _Faust II...flac 8.4 MB
CD10/03 - Symphony No. 8 in E-flat major_ Part II. Schlußszene aus Goethes _Faust II...flac 26.7 MB
CD10/04 - Symphony No. 8 in E-flat major_ Part II. Schlußszene aus Goethes _Faust II...flac 15.6 MB
CD10/05 - Symphony No. 8 in E-flat major_ Part II. Schlußszene aus Goethes _Faust II...flac 14.3 MB
CD10/06 - Symphony No. 8 in E-flat major_ Part II. Schlußszene aus Goethes _Faust II...flac 39.2 MB
CD10/07 - Symphony No. 8 in E-flat major_ Part II. Schlußszene aus Goethes _Faust II...flac 22.7 MB
CD10/08 - Symphony No. 8 in E-flat major_ Part II. Schlußszene aus Goethes _Faust II...flac 25.6 MB
CD10/09 - Symphony No. 8 in E-flat major_ Part II. Schlußszene aus Goethes _Faust II...flac 29.5 MB
CD10/10 - Symphony No. 8 in E-flat major_ Part II. Schlußszene aus Goethes _Faust II...flac 29.4 MB
CD10/CD10.CUE 3.1 KB
CD10/CD10.log 3.4 KB
folder.jpg 39.8 KB
front.jpg 3.7 MB
m3u.m3u 4.2 KB
tracklist.txt 7.3 KB