The Sitter 2011 UNRATED DvDRip XviD Ac3 Feel-Free

Torrent Details

The Sitter 2011 UNRATED DvDRip XviD Ac3 Feel-FreeName:The Sitter 2011 UNRATED DvDRip XviD Ac3 Feel-Free.torrent
Status:
This torrent has been verified!This torrent has been verified to be real and without virusses.
Category:Movies
Size:1.2 GB in 8 files
Added:Uploaded on 03-03-2012 by our crawler pet called "Spidey".
Swarm:0 seeders & 0 leechers
Connect: Torlock Facebook Page
Vote:You got to be logged in to vote for this torrent.
Rating:No votes yet.

Torrent Download Locations

Torrent Description

Genre:Comedy
Language:English
IMDb:http://www.imdb.com/title/tt1366344/
Source:DVD Thanks!
Encoder:Tony

Format : AVI
Format/Info : Audio Video Interleave
File size : 1.15 GiB
Duration : 1h 20mn
Overall bit rate : 2 038 Kbps

Video
ID : 0
Format : MPEG-4 Visual
Format profile : Advanced Simple@L5
Format settings, BVOP : 1
Format settings, QPel : No
Format settings, GMC : No warppoints
Format settings, Matrix : Default (H.263)
Codec ID : XVID
Codec ID/Hint : XviD
Duration : 1h 20mn
Bit rate : 1 581 Kbps
Width : 640 pixels
Height : 328 pixels
Display aspect ratio : 1.951
Frame rate : 23.976 fps
Color space : YUV
Chroma subsampling : 4:2:0
Bit depth : 8 bits
Scan type : Progressive
Compression mode : Lossy
Bits/(Pixel*Frame) : 0.314
Stream size : 915 MiB (78%)
Writing library : XviD 1.2.1 (UTC 2008-12-04)

Audio
ID : 1
Format : AC-3
Format/Info : Audio Coding 3
Mode extension : CM (complete main)
Codec ID : 2000
Duration : 1h 20mn
Bit rate mode : Constant
Bit rate : 448 Kbps
Channel(s) : 6 channels
Channel positions : Front: L C R, Side: L R, LFE
Sampling rate : 48.0 KHz
Bit depth : 16 bits
Compression mode : Lossy
Stream size : 259 MiB (22%)
Alignment : Aligned on interleaves
Interleave, duration : 42 ms (1.00 video frame)
Interleave, preload duration : 512 ms


Plot:
A comedy about a college student on suspension who is coaxed into babysitting the kids next door, though he is fully unprepared for the wild night ahead of him.

TRAILER:
http://www.youtube.com/watch?v=japyVYImEcM






Greets:

CRYS,IMAGINE,LKRG,FXG,3Li,FLAWL3SS,TA,iLLUSiON,EMBER,HOPE,GooN,BBnRG,NOGRP,ETRG,BHRG,iLLUMiNATi,MiSTERE.ViSiON,DTRG SAFCuk009,LU,TheFalcon007,MYSTiC,PrisM,Noir,WBZ,LAP,Rx,Kingdom,SAFCuk009+Fabreezy,HDLiTE,TWiZTED,ExtraTorrentRG.ELEKTRI4KA,MAGNAT,CM8
And to all the other p2p grps past and present






Thanks to all who promotes release Feel-Free !!!


Thank Mttyboi1995 for help!!!

Discussion

0 Responses

There are no responses yet

Add your Response

To post your comment to this torrent, please login to our site.

Torrent Files Size
film8577pic92134big.jpg 106.2 KB
New Text Document.txt 3.3 KB
The Sitter 2011 UNRATED DvDRip.XviD.Ac3.Feel-Free.avi 1.2 GB
The Sitter 2011 UNRATED DvDRip.XviD.Ac3.Feel-Free.nfo 3.3 KB
vlcsnap-2012-03-03-16h52m16s247.png 293.2 KB
vlcsnap-2012-03-03-16h52m46s32.png 261.9 KB
vlcsnap-2012-03-03-16h52m52s87.png 261.3 KB
vlcsnap-2012-03-03-16h53m08s4.png 210.2 KB

© 2014 TorLock - The No Fakes Torrent Site