Barbie In A Mermaid Tale 2 2012 DVDRiP AC3-5 1 XviD-SiC

Torrent Details

Barbie In A Mermaid Tale 2 2012 DVDRiP AC3-5 1 XviD-SiCName:Barbie In A Mermaid Tale 2 2012 DVDRiP AC3-5 1 XviD-SiC.torrent
Status:
This torrent has been verified!This torrent has been verified to be real and without virusses.
Category:Movies
Size:1.4 GB in 3 files
Added:Uploaded on 06-03-2012 by our crawler pet called "Spidey".
Swarm:0 seeders & 0 leechers
Vote:You got to be logged in to vote for this torrent.
Rating:No votes yet.

Torrent Download Locations

Torrent Description

°°°°²²²²²²²²²²²²²²²²²²²²²²°²²²²²²²²²²²²²²²²°²²²²²²²²²²²²°²²²²²²²²²²²²²²²²°°°°°°°
°°°°°°°°²²²²²²²²²²²²²²²²²°°°°²²²²²²²²²²²²²°°²²²²²²²²²²°°°°°²²²²²²²²²²²²°°°°°°°°²
²°°°°°°°°°°²²²²²²²²²²²²°°°°°°°°²²²²²²²²²°°°°°²²²²²²²²°°°°°°°°²²²²²°°°°°°°°°°°²²²
²²²°°°°°°°°°°°°°°°°°°°°°°°±±±°°°°²²²²°°°°°°°°°²²²²²°°°°±±±±°°°°°°°°°°°°°°°°²²²²²
²²²²°°°°°°°°°°°°°°°°°°°±±±±±±±±°°°°°°°°°°±±°°°²²²²°°°±±±±±±±°°°°°°°±±±°°°²²²²²²²
²²²²²²°°°°±±±±±±±±±±±±±±±±±±±±±±°°°°°±±±±±±±°°°°°°°±±±±±±±±±±±±±±±±±±±°°°²²²²²²²
²²²²²²²°°°±±±±±ÛÛÛÛÛÛÛÛÛÛÛÛÛ±±±±±±±±±±±±±±±±°°°°°±±±±±ÛÛÛÛÛÛÛÛÛÛÛ±±±±°°°²²²²²²²²
²²²²²²°°°°±±±±ÛÛÛÛÛÛÛÛÛÛÛÛÛÛÛ±±±±±±±±Û±±±±±±±°°±±±±±ÛÛÛÛÛÛÛÛÛÛÛÛÛÛ±±±°°²²²²²²²²²
²²²²²°°°°°±±±ÛÛ±±±±±±±±±±ÛÛÛÛ±±±±±±±ÛÛÛ±±±±±±±±±±±±ÛÛÛ±±±±±±±±±ÛÛÛ±±°°°°°°²²²²²²
²²²²°°°°°±±±ÛÛ±±±±±±±±±±±±ÛÛ±±±±±±±±±Û±±±±±±±±±±±ÛÛÛÛ±±±±±±±±±±±±±±±°°°°°°°°²²²²
²²°°°°°°±±±±ÛÛ±±±±±±±±±±±±±±±±±±±±±±±±±±±±±±±±±±ÛÛÛÛ±±±±±±±±±±±±±±±±±±°°°°°°°°²²
²°°°°°°±±±±±ÛÛ±±±±±±±±±±±±±±±±±±±±±±±Û±±±±±±±±±ÛÛÛÛ±±±±±±±±±±±±±±±±±±±±±°°°°°°°²
°°°°°°°±±±±±ÛÛÛÛ±±±±±±±±±±±±±±±±±±±±ÛÛÛ±±±±±±±ÛÛÛÛ±±±±±±±±±±±±±±±±±±±±±±±±°°°°°°
²°°°°°°±±±±±±ÛÛÛÛÛ±±±±±±±±±±±±±±±±±±ÛÛÛ±±±±±±±ÛÛÛ±±±±±±±±±±±±±±±±±±±±±±±±°°°°°²²
²²°°°°°±±±±±±±±ÛÛÛÛÛÛÛÛ±±±±±±±±±±±±±ÛÛÛ±±±±±±±ÛÛÛ±±±±±±±±±±±±±±±±±±±±±±°°°°°°²²²
²²²²°°°°°±±±±±±±±±±±±ÛÛÛÛÛ±±±±±±±±±±ÛÛÛ±±±±±±±ÛÛÛ±±±±±±±±±±±±±±±±±±±±±°°°°²²²²²²
²²²²²²°°°°°±±±±±±±±±±±±±ÛÛÛ±±±±±±±±±ÛÛÛ±±±±±±±ÛÛÛ±±±±±±±±±±±±±±±±±±±°°°°²²²²²²²²
²²²²²²²°°°°°°±±±±±±±±±±±±±ÛÛ±±±±±±±±ÛÛÛ±±±±±±±ÛÛÛ±±±±±±±±±±±±±±±±±±°°°²²²²²²²²²²
²²²²²²²²°°°°°±±±±±±±±±±±±±±ÛÛ±±±±±±±ÛÛÛ±±±±±±±ÛÛÛ±±±±±±±±±±±±±±±±±±°°°²²²²²²²²²²
²²²²²²²²²²°°°±±±±±±±±±±±±±±±ÛÛ±±±±±±ÛÛÛ±±±±±±±ÛÛÛ±±±±±±±±±±±±±±±±±±°°°²²²²²²²²²²
²²²²²²²²²²°°°±±±±±±±±±±±±±±±ÛÛ±±±±±±ÛÛÛ±±±±±±±ÛÛÛÛ±±±±±±±±±±±±±±±±±°°²²²²²²²²²²²
²²²²²²²²²²°°°±±±±±±±±±±±±±±±ÛÛ±±±±±±ÛÛÛ±±±±±±±±ÛÛÛÛ±±±±±±±±±±±±±±±°°°°°°²²²²²²²²
²²²²²²²²²°°°±±±±±±±±±±±±±±±±ÛÛ±±±±±±ÛÛÛ±±±±±±±±±ÛÛÛÛ±±±±±±±±±±±±±±°°°°°°°°²²²²²²
²²²²²²²²°°°±±±±±±±±±±±±±±±±±ÛÛ±±±±±±ÛÛÛ±±±±±±±±±±ÛÛÛÛ±±±±±±±±±±±±±±°°°°°°°°°°²²²
²²²²²²²°°°±±±±±ÛÛ±±±±±±±±±±ÛÛÛ±±±±±±ÛÛÛ±±±±±±±±±±±±ÛÛÛ±±±±±±±±±ÛÛÛ±±°°°°°°°°°°°°
²²²²²²°°°±±±±±ÛÛÛÛ±±±±±±±±ÛÛÛ±±±±±±±ÛÛÛ±±±±±±±±±±±±±ÛÛÛÛÛÛÛÛÛÛÛÛÛÛ±±±°°°°°°°°°°²
²²²²²²°°±±±±±±±ÛÛÛÛÛÛÛÛÛÛÛÛ±±±±±±±±±ÛÛÛ±±±°°°°°±±±±±±±ÛÛÛÛÛÛÛÛÛÛÛ±±±°°°°°°°°°²²²
²²²²²²°°±±±±±±±±ÛÛÛÛÛÛÛÛÛ±±±°°°°°±±±±±±±±°°°°°°°±±±±±±±±±±±±±±±±±±±°°°°°°°²²²²²²
²²²²²°°°±±±°°°°±±±±±±±±±±±°°°°°°°±±±±±±±°°°°²²°°°±±±±±±±±±±±±±±±±°°°°°°°²²²²²²²²
²²²°°°°°±°°°°°°°±±±±±±±±°°°°°²²²°°±±±±°°°°²²²²²°°°°±±±±±±±±±±±±°°°°°°°°°²²²²²²²²
²²°°°°°°°°²²²²°°°±±±±±°°°°²²²²²²°°°°°°°°²²²²²²²²²°°°±±±±±±±±°°°°°°°°°°°°°°²²²²²²
²°°°°°°°°²²²²²²°°°°°°°°°²²²²²²²²²°°°°°°²²²²²²²²²²²°°°°°°°°°°°°²²²°°°°°°°°°°²²²²²
°°°°°°°²²²²²²²²²°°°°°²²²²²²²²²²²²²²°°°²²²²²²²²²²²²²°°°°°°°°°²²²²²²°°°°°°°°°°°²²²
²²²²²²²²²²²²²²²²²°°°²²²²²²²²²²²²²²²²°²²²²²²²²²²²²²²²°°°°°°°²²²²²²²²²²°°°°°°°°°°²
²²²²²²²²²²²²²²²²²²°²²²²²²²²²²²²²²²²²²²²²²²²²²²²²²²²²²°°°°°²²²²²²²²²²²²²²°°°°°°°°
²²²²²²²²²²²²²²²²²²²²²²²²²²²²²²²²²²²²²²²²²²²²²²²²²²²²²²²²²²²²²²²²²²²²²²²²²²²²²²²²
³²²²²²²²²²²²²²²²²²²²²²²²²²²²²²²²²²²²²²²²²²²²²²²²²²²²²²²²²²²²²²²²²²²²²²²²²²²²²²²³
³²²²²²²²²²²²²²²²²²²²²²²²²²²²²²²²²²²²²²²²²²²²²²²²²²²²²²²²²²²²²²²²²²²²²²²²²²²²²²²³
³²²²²²²²²Ú¿²²²²²²²²Ú¿²²²²²²²²Ú¿²²²²²²²²Ú¿²²²²²²²²Ú¿²²²²²²²²Ú¿²²²²²²²²Ú¿²²²²²²²²³
³²²²²²²²²³³²²²²²²²²³³²²²²²²²²³³²²²²²²²²³³²²²²²²²²³³²²²²²²²²³³²²²²²²²²³³²²²²²²²²³
³²²ÉÄÄ»²²³³²²ÚÄÄ¿²²³³²²ÉÄÄ»²²³³²²ÚÄÄÄÄÄÙ³²²ÉÄÄ»²²³³²²ÚÄÄ¿²²³ÀÄÄ¿²²ÚÄÄÙ³²²ÚÄÄÄÄÄÙ
³²²ÈÄļ²²³³²²³ ³²²³³²²ÈÄļ²²³³²²ÀÄÄÄÄÄ¿³²²ÈÄļ²²³³²²³ ³²²³ ³²²³ ³²²ÀÄÄÄÄÄ¿
³²²²²²²²²³³²²³ ÀÄÄÙ³²²²²²²²²³³²²²²²²²²³³²²²²²²²²³³²²³ ³²²³ ³²²³ ³²²²²²²²²³
³²²²²²²²²³³²²³ ³²²²²²²²²³³²²²²²²²²³³²²²²²²²²³³²²³ ³²²³ ³²²³ ³²²²²²²²²³
³²²ÚÄÄÄÄÄÙ³²²³ ³²²ÚÄÄÄÄÄÙÀÄÄÄÄÄ¿²²³³²²ÚÄÄÄÄÄÙ³²²³ ³²²³ ³²²³ ÀÄÄÄÄÄ¿²²³
³²²³ ³²²³ ³²²ÀÄÄÄÄÄ¿ÚÄÄÄÄÄÙ²²³³²²ÀÄÄÄÄÄ¿³²²³ ³²²³ ³²²³ ÚÄÄÄÄÄÙ²²³
³²²³ ³²²³ ³²²²²²²²²³³²²²²²²²²³³²²²²²²²²³³²²³ ³²²³ ³²²³ ³²²²²²²²²³
³²²³ ³²²³ ³²²²²²²²²³³²²²²²²²²³³²²²²²²²²³³²²³ ³²²³ ³²²³ ³²²²²²²²²³
ÀÄÄÙ ÀÄÄÙ ÀÄÄÄÄÄÄÄÄÙÀÄÄÄÄÄÄÄÄÙÀÄÄÄÄÄÄÄÄÙÀÄÄÙ ÀÄÄÙ ÀÄÄÙ ÀÄÄÄÄÄÄÄÄÙ

Barbie.In.A.Mermaid.Tale.2.2012.DVDRiP.AC3-5.1.XviD-SiC

Poster:


IMDB Link:
http://www.imdb.com/title/tt2197823/

Description:
Surf's up for Barbie as she returns as Merliah, the fun and fashionable surfing champion who's also a magical mermaid princess!?In this exciting sea-quel, Merliah makes a splash when she heads to Australia for the ultimate surfing competition. When the evil mermaid Eris escapes from her whirlpool with plans to take over the throne of Oceana, Merliah and her sea friends dive in to stop her. It's a fresh new adventure where Merliah learns that anything is possible and she really can have the best of both worlds!

MediaInfo:
General
Complete name : Barbie.In.A.Mermaid.Tale.2.2012.DVDRiP.AC3-5.1.XviD-SiC.avi
Format : AVI
Format/Info : Audio Video Interleave
File size : 1.37 GiB
Duration : 1h 12mn
Overall bit rate : 2 685 Kbps
Writing application : VirtualDubMod 1.5.10.2 (build 2540/release)
Writing library : VirtualDubMod build 2540/release

Video
ID : 0
Format : MPEG-4 Visual
Format profile : Advanced Simple@L5
Format settings, BVOP : 2
Format settings, QPel : No
Format settings, GMC : No warppoints
Format settings, Matrix : Default (H.263)
Muxing mode : Packed bitstream
Codec ID : XVID
Codec ID/Hint : XviD
Duration : 1h 12mn
Bit rate : 2 290 Kbps
Width : 720 pixels
Height : 400 pixels
Display aspect ratio : 16:9
Frame rate : 29.970 fps
Color space : YUV
Chroma subsampling : 4:2:0
Bit depth : 8 bits
Scan type : Progressive
Compression mode : Lossy
Bits/(Pixel*Frame) : 0.265
Stream size : 1.17 GiB (85%)
Writing library : XviD 62

Audio
ID : 1
Format : AC-3
Format/Info : Audio Coding 3
Mode extension : CM (complete main)
Codec ID : 2000
Duration : 1h 12mn
Bit rate mode : Constant
Bit rate : 384 Kbps
Channel(s) : 6 channels
Channel positions : Front: L C R, Side: L R, LFE
Sampling rate : 48.0 KHz
Bit depth : 16 bits
Compression mode : Lossy
Stream size : 200 MiB (14%)
Alignment : Split accross interleaves
Interleave, duration : 33 ms (1.00 video frame)
Interleave, preload duration : 500 ms


Screenshots:






Note : Did my thing, turned out nice.

Source: R1 from a friend, thanks m8!

Enjoy!

Respects to T00NG0D, ELEKTRI4KA, PA, YeFsTe, MrRep and everyone in the struggle...R

Discussion

0 Responses

There are no responses yet

Add your Response

To post your comment to this torrent, please login to our site.

Torrent Files Size
Barbie.In.A.Mermaid.Tale.2.2012.DVDRiP.AC3-5.1.XviD-SiC.avi 1.4 GB
Barbie.In.A.Mermaid.Tale.2.2012.DVDRiP.AC3-5.1.XviD-SiC.nfo 7.6 KB
Barbie.In.A.Mermaid.Tale.2.2012.DVDRiP.AC3-5.1.XviD-SiC.sample.avi 31.3 MB

© 2014 TorLock - The No Fakes Torrent Site