Loading...
Welcome. We are currently moving servers physically to a new location and you have reached our new servers.
If things don't work, please be patient, we are working on getting everything up asap.

The Sitter 2011 BRRip XviD Ac3 Feel-Free

Torrent Details

The Sitter 2011 BRRip XviD Ac3 Feel-FreeName:The Sitter 2011 BRRip XviD Ac3 Feel-Free.torrent
Status:
This torrent has been verified!This torrent has been verified to be real and without virusses.
Category:Movies
Size:1.2 GB in 9 files
Added:Uploaded on 16-03-2012 by our crawler pet called "Spidey".
Swarm:0 seeders & 0 leechers
Connect: Torlock Facebook Page
Vote:You got to be logged in to vote for this torrent.
Rating:No votes yet.

Torrent Download Locations

Torrent Description




Genre:Comedy
Language:English
IMDb:http://www.imdb.com/title/tt1366344/
Source:1080p.BluRay.X264-AMIABLE Thanks!
Encoder:Boom24

Format : AVI
Format/Info : Audio Video Interleave
File size : 1.19 GiB
Duration : 1h 27mn
Overall bit rate : 1 952 Kbps

Video
ID : 0
Format : MPEG-4 Visual
Format profile : Advanced Simple@L5
Format settings, BVOP : 1
Format settings, QPel : No
Format settings, GMC : No warppoints
Format settings, Matrix : Default (H.263)
Codec ID : XVID
Codec ID/Hint : XviD
Duration : 1h 27mn
Bit rate : 1 495 Kbps
Width : 640 pixels
Height : 344 pixels
Display aspect ratio : 1.860
Frame rate : 23.976 fps
Color space : YUV
Chroma subsampling : 4:2:0
Bit depth : 8 bits
Scan type : Progressive
Compression mode : Lossy
Bits/(Pixel*Frame) : 0.283
Stream size : 931 MiB (77%)
Writing library : XviD 1.2.1 (UTC 2008-12-04)

Audio
ID : 1
Format : AC-3
Format/Info : Audio Coding 3
Mode extension : CM (complete main)
Codec ID : 2000
Duration : 1h 27mn
Bit rate mode : Constant
Bit rate : 448 Kbps
Channel(s) : 6 channels
Channel positions : Front: L C R, Side: L R, LFE
Sampling rate : 48.0 KHz
Bit depth : 16 bits
Compression mode : Lossy
Stream size : 279 MiB (23%)
Alignment : Aligned on interleaves
Interleave, duration : 42 ms (1.00 video frame)
Interleave, preload duration : 512 ms


Plot:
A comedy about a college student on suspension who is coaxed into babysitting the kids next door, though he is fully unprepared for the wild night ahead of him

TRAILER:
http://www.youtube.com/watch?v=japyVYImEcM&feature=player_embedded







Greets:

CRYS,IMAGINE,LKRG,FXG,3Li,FLAWL3SS,TA,iLLUSiON,EMBER,ETRG,BHRG,iLLUMiNATi,MiSTERE.ViSiON,DTRG SAFCuk009,LU,TheFalcon007,MYSTiC,PrisM,Noir,WBZ,LAP,Rx,Kingdom,SAFCuk009+Fabreezy,HDLiTE,TWiZTED,ExtraTorrentRG.ELEKTRI4KA,MAGNAT,CM8
And to all the other p2p grps past and present






Thanks to all who promotes release Feel-Free !!!

Discussion

0 Responses

There are no responses yet

Add your Response

To post your comment to this torrent, please login to our site.

Torrent Files Size
2dcef9be86.jpg 345 KB
The.Sitter.2011.BRRip.XviD.Ac3.Feel-Free.avi 1.2 GB
The.Sitter.2011.BRRip.XviD.Ac3.Feel-Free.nfo 3.4 KB
vlcsnap-2012-03-16-06h01m11s118.png 318.2 KB
vlcsnap-2012-03-16-06h02m01s96.png 362.5 KB
vlcsnap-2012-03-16-06h02m52s93.png 374.9 KB
vlcsnap-2012-03-16-06h03m12s38.png 210.6 KB
vlcsnap-2012-03-16-06h03m23s152.png 361.9 KB
vlcsnap-2012-03-16-06h03m48s153.png 277.2 KB

© 2014 TorLock - The No Fakes Torrent Site