Very Young Virgin Teen With Perfect Pink Nippled Tits And Small Tight Ba ...

Torrent Details

Very Young Virgin Teen with perfect Pink nippled tits and small tight ba ...Name:Very Young Virgin Teen with perfect Pink nippled tits and small tight ba ....torrent
Status:
This torrent has been verified!This torrent has been verified to be real and without virusses.
Category:Adult
Size:110 MB in 3 files
Added:Uploaded on 18-03-2012 by our crawler pet called "Spidey".
Swarm:0 seeders & 0 leechers
Connect: Torlock Facebook Page
Vote:You got to be logged in to vote for this torrent.
Rating:No votes yet.

Torrent Download Locations

Torrent Description

Very Young Virgin Teen with perfect Pink nippled tits and small tight bald pussy gets savagely Ra








Format : MPEG-PS
File size : 110 MiB
Duration : 1mn 22s
Overall bit rate : 11.2 Mbps

Video
ID : 224 (0xE0)
Format : MPEG Video
Format version : Version 1
Format settings, BVOP : Yes
Format settings, Matrix : Default
Duration : 1mn 22s
Bit rate mode : Constant
Bit rate : 10.8 Mbps
Nominal bit rate : 512 Kbps
Width : 352 pixels
Height : 288 pixels
Display aspect ratio : 4:3
Frame rate : 25.000 fps
Standard : PAL
Color space : YUV
Bit depth : 8 bits
Scan type : Progressive
Compression mode : Lossy
Bits/(Pixel*Frame) : 4.251
Stream size : 106 MiB (96%)

Audio
ID : 192 (0xC0)
Format : MPEG Audio
Format version : Version 1
Format profile : Layer 2
Duration : 1mn 22s
Bit rate mode : Constant
Bit rate : 192 Kbps
Channel(s) : 1 channel
Sampling rate : 32.0 KHz
Compression mode : Lossy
Delay relative to video : 8ms
Stream size : 1.89 MiB (2%)

































Discussion

0 Responses

There are no responses yet

Add your Response

To post your comment to this torrent, please login to our site.

Torrent Files Size
-=MTR=- [Masti Torrents Releasers].txt 175 B
CATCH.US.ON.FACEBOOK.nfo 137 B
Very Young Virgin Teen with perfect Pink nippled tits and small tight bald pussy gets savagely Ra.mpg 110.2 MB

© 2014 TorLock - The No Fakes Torrent Site