Loading...
Welcome. We are currently moving servers physically to a new location and you have reached our new servers.
If things don't work, please be patient, we are working on getting everything up asap.

Khiladi 786 (2012) Hindi DVDScr XviD - Exclusive

Torrent Details

Khiladi 786 (2012) Hindi DVDScr XviD - ExclusiveName:Khiladi 786 (2012) Hindi DVDScr XviD - Exclusive.torrent
Status:
This torrent has been verified!This torrent has been verified to be real and without virusses.
Category:Movies
Size:713 MB in 2 files
Added:Uploaded on 08-12-2012 by our crawler pet called "Spidey".
Swarm:0 seeders & 0 leechers
Connect: Torlock Facebook Page
Vote:You got to be logged in to vote for this torrent.
Rating:No votes yet.

Torrent Download Locations

Torrent Description

Info:

Format : AVI
Format/Info : Audio Video Interleave
File size : 713 MiB
Duration : 2h 1mn
Overall bit rate : 820 Kbps

Video
ID : 0
Format : MPEG-4 Visual
Format profile : Advanced Simple@L5
Format settings, BVOP : 2
Format settings, QPel : Yes
Format settings, GMC : No warppoints
Format settings, Matrix : Default (H.263)
Codec ID : XVID
Codec ID/Hint : XviD
Duration : 2h 1mn
Source duration : 1h 53mn
Bit rate : 708 Kbps
Width : 640 pixels
Height : 272 pixels
Display aspect ratio : 2.35:1
Frame rate : 25.000 fps
Color space : YUV
Chroma subsampling : 4:2:0
Bit depth : 8 bits
Scan type : Progressive
Compression mode : Lossy
Bits/(Pixel*Frame) : 0.163
Stream size : 574 MiB (81%)
Writing library : XviD 1.2.1 (UTC 2008-12-04)

Audio
ID : 1
Format : MPEG Audio
Format version : Version 1
Format profile : Layer 3
Mode : Joint stereo
Mode extension : MS Stereo
Codec ID : 55
Codec ID/Hint : MP3
Duration : 2h 1mn
Source duration : 1h 53mn
Bit rate mode : Constant
Bit rate : 112 Kbps
Channel(s) : 2 channels
Sampling rate : 48.0 KHz
Compression mode : Lossy
Stream size : 90.8 MiB (13%)
Alignment : Aligned on interleaves
Interleave, duration : 24 ms (0.60 video frame)
Interleave, preload duration : 192 ms

Screens:




Discussion

0 Responses

There are no responses yet

Add your Response

To post your comment to this torrent, please login to our site.

Torrent Files Size
Khiladi 786 (2012) Hindi DVDScr XviD - Exclusive.avi 713.2 MB
readme.txt 29 B

© 2014 TorLock - The No Fakes Torrent Site