A Good Day To Die Hard (2013) TS XviD - Exclusive

Torrent Details

A Good Day To Die Hard (2013) TS XviD - ExclusiveName:A Good Day To Die Hard (2013) TS XviD - Exclusive.torrent
Status:
This torrent has been verified!This torrent has been verified to be real and without virusses.
Category:Movies
Size:1.2 GB in 3 files
Added:Uploaded on 23-02-2013 by our crawler pet called "Spidey".
Swarm:0 seeders & 0 leechers
Vote:You got to be logged in to vote for this torrent.
Rating:No votes yet.

Torrent Download Locations

Torrent Description

Code:

Format : AVI
Format/Info : Audio Video Interleave
File size : 1.20 GiB
Duration : 1h 30mn
Overall bit rate : 1 891 Kbps
Writing library : VirtualDub build 32842/release


Video
ID : 0
Format : AVC
Format/Info : Advanced Video Codec
Format profile : [email protected]
Format settings, CABAC : Yes
Format settings, ReFrames : 4 frames
Format settings, GOP : M=1, N=2
Codec ID : X264
Codec ID/Info : XiWave GNU GPL x264 MPEG-4
Duration : 1h 30mn
Bit rate : 1 500 Kbps
Width : 720 pixels
Height : 360 pixels
Display aspect ratio : 2.000
Frame rate : 25.000 fps
Color space : YUV
Chroma subsampling : 4:2:0
Bit depth : 8 bits
Scan type : Progressive
Bits/(Pixel*Frame) : 0.231
Stream size : 971 MiB (79%)
Writing library : x264 core 125 r2200bm 999b753

Audio
ID : 1
Format : AC-3
Format/Info : Audio Coding 3
Mode extension : CM (complete main)
Codec ID : 2000
Duration : 1h 30mn
Bit rate mode : Constant
Bit rate : 384 Kbps
Channel(s) : 2 channels
Channel positions : Front: L R
Sampling rate : 48.0 KHz
Bit depth : 16 bits
Compression mode : Lossy
Stream size : 249 MiB (20%)
Alignment : Aligned on interleaves
Interleave, duration : 40 ms (1.00 video frame)
Interleave, preload duration : 512 ms

Sample Included
yes 1 samples
_________________________________________________________________________________


Notes:

Source was pretty good.
Source has some movement. Not much. Nothing big.
Rotated,smoothed,sharpend. You know the Drill.
Ran vid thru a few filters. An cleaned the vid up.

Audio is untouched.
**(Sound may not work in VLC Media Player, So, use any other media player)**



Screens:






Discussion

0 Responses

There are no responses yet

Add your Response

To post your comment to this torrent, please login to our site.

Torrent Files Size
A Good Day To Die Hard (2013) TS XviD - Exclusive.avi 1.2 GB
readme.txt 63 B
Sample.avi 16.4 MB

© 2014 TorLock - The No Fakes Torrent Site