CSI - Las Vegas S13e01 Karma Da Bruciare MIRCrew

Torrent Details

CSI - Las Vegas S13e01 Karma da bruciare  MIRCrewName:CSI - Las Vegas S13e01 Karma da bruciare MIRCrew.torrent
Status:
This torrent has been verified!This torrent has been verified to be real and without virusses.
Category:Television
Size:556 MB in 1 file
Added:Uploaded on 15-03-2013 by robbyrs (Forum Profile: robbyrs).
Swarm:0 seeders & 0 leechers
Connect: Torlock Facebook Page
Vote:You got to be logged in to vote for this torrent.
Rating:No votes yet.

Torrent Download Locations

Torrent Description

CSI - Las Vegas S13e01 Karma da bruciare [Mux - DivX - Ita Mp3] MIRCrew [TNT Village]








Mux by robbyrs

Episodi presenti:

S13e01 Karma da bruciare



La stagione 13 di CSI riprende con una premiere mozzafiato che si riaggancia ai numerosi cliffhanger che avevano chiuso la scorsa stagione. In primis il rapimento della nipote di Russell

che sconvolgerà il protagonista portandolo a mostrarci lati del suo carattere del tutto inaspettati rispetto alla sua immagine di uomo razionale e controllato.

Avevamo lasciato Finn (Elisabeth Shue) ad un appuntamento con un collega; al termine del quale incontra qualcuno che sembrerebbe non avere buone intenzioni .

Riconfermato anche Nick (George Eads), che dopo aver lasciato bruscamente la squadra investigativa si ritrova ad affrontare da solo uno dei momenti più bassi della sua carriera e della sua

vita privata.

Scopriremo anche come si concluderà la vicenda del “recurring” McKeen (Conor O’Farrell), arrestato nello scorso season finale e coinvolto nel rapimento della nipotina di Russel e

dell’agguato ad Ecklie.





Ted Danson, Elisabeth Shue, George Eads, Jorja Fox, Eric Szmanda, Robert David Hall, Wallace Langham.......










DATI FILE:

General
Complete name : CSI..S13e01.Karma da bruciare.mux.Ita.MIRCrew.avi
Format : AVI
Format/Info : Audio Video Interleave
File size : 556 MiB
Duration : 42mn 25s
Overall bit rate : 1 882 Kbps
Writing library : MPlayer

Video
ID : 0
Format : MPEG-4 Visual
Format profile : Simple@L1
Format settings, BVOP : No
Format settings, QPel : No
Format settings, GMC : No warppoints
Format settings, Matrix : Default (H.263)
Codec ID : DX50
Codec ID/Hint : DivX 5
Duration : 41mn 17s
Bit rate : 1 742 Kbps
Width : 720 pixels
Height : 404 pixels
Display aspect ratio : 16:9
Frame rate : 25.000 fps
Color space : YUV
Chroma subsampling : 4:2:0
Bit depth : 8 bits
Scan type : Interlaced
Scan order : Top Field First
Bits/(Pixel*Frame) : 0.240
Stream size : 514 MiB (93%)
Writing library : Lavc52.30.1

Audio
ID : 1
Format : MPEG Audio
Format version : Version 1
Format profile : Layer 3
Mode : Joint stereo
Mode extension : MS Stereo
Codec ID : 55
Codec ID/Hint : MP3
Duration : 42mn 25s
Bit rate mode : Constant
Bit rate : 128 Kbps
Channel(s) : 2 channels
Sampling rate : 44.1 KHz
Stream size : 37.8 MiB (7%)
Alignment : Aligned on interleaves
Interleave, duration : 26 ms (0.65 video frame)
Interleave, preload duration : 809 ms











Discussion

0 Responses

There are no responses yet

Add your Response

To post your comment to this torrent, please login to our site.

Torrent Files Size
CSI..S13e01.Karma da bruciare.mux.Ita.MIRCrew.avi 555.8 MB

© 2014 TorLock - The No Fakes Torrent Site