Killers Creed 2013 DVDrip Xvid Ac3-MiLLENiUM

Torrent Details

Killers Creed 2013 DVDrip Xvid Ac3-MiLLENiUMName:Killers Creed 2013 DVDrip Xvid Ac3-MiLLENiUM.torrent
Status:
This torrent has been verified!This torrent has been verified to be real and without virusses.
Category:Movies
Size:1.4 GB in 3 files
Added:Uploaded on 03-05-2013 by our crawler pet called "Spidey".
Swarm:0 seeders & 0 leechers
Vote:You got to be logged in to vote for this torrent.
Rating:No votes yet.

Torrent Download Locations

Torrent Description

http://www.imdb.com/title/tt0438052/


In a futuristic world, Michelle lives everyday battling with DNA Hackers who use their skills to hack into people's bodies and kill them. She is an assassin, battling her past demons and trying to keep her younger and extroverted brother, Jackie, out of trouble. When Jackie gets involved in a petty crime of robbery, he propels himself into the world of DNA Hackers, Shylocks (Loan Sharks) and Gang Fights. Wanting the respect that the world has never given to him only makes it harder for Jackie to peel himself away from the underground trades, against the hopes of his sister, Michelle. Michelle always wanted to leave the city and lead a calm and quiet lifestyle. As emotions and gunfire get into the way, Michelle and Jackie soon find themselves battling between their lives and finding out that in an immoral world, love can still survive. Blood is thicker than water.

Michelle, an assassin to a new breed of killers (DNA Hackers), finds she has greater obstacles in her life... Family.



Director:
Pearry Reginald Teo

Writers:
Pearry Reginald Teo, Keith Collea

Stars:
Bai Ling, Alec Newman, Parry Shen

Genres:
Action | Sci-Fi

Country:
USA

Language:
English




General
Complete name : Killers Creed 2013 DVDrip Xvid Ac3-MiLLENiUM.avi
Source : DVDR L-S [thanks] :wink:
Format : AVI
Format/Info : Audio Video Interleave
File size : 1.38 GiB
Duration : 1h 31mn
Overall bit rate : 2 156 Kbps
Writing application : VirtualDubMod 1.5.10.2 (build 2540/release)
Writing library : VirtualDubMod build 2540/release

Video
ID : 0
Format : MPEG-4 Visual
Format profile : Advanced Simple@L5
Format settings, BVOP : 2
Format settings, QPel : No
Format settings, GMC : No warppoints
Format settings, Matrix : Default (H.263)
Muxing mode : Packed bitstream
Codec ID : XVID
Codec ID/Hint : XviD
Duration : 1h 31mn
Bit rate : 1 698 Kbps
Width : 720 pixels
Height : 384 pixels
Display aspect ratio : 1.875
Frame rate : 25.000 fps
Color space : YUV
Chroma subsampling : 4:2:0
Bit depth : 8 bits
Scan type : Progressive
Compression mode : Lossy
Bits/(Pixel*Frame) : 0.246
Stream size : 1.09 GiB (79%)
Writing library : XviD 1.2.1 (UTC 2008-12-04)

Audio
ID : 1
Format : AC-3
Format/Info : Audio Coding 3
Mode extension : CM (complete main)
Codec ID : 2000
Duration : 1h 31mn
Bit rate mode : Constant
Bit rate : 448 Kbps
Channel(s) : 6 channels
Channel positions : Front: L C R, Side: L R, LFE
Sampling rate : 48.0 KHz
Bit depth : 16 bits
Compression mode : Lossy
Stream size : 294 MiB (21%)
Alignment : Split accross interleaves
Interleave, duration : 40 ms (1.00 video frame)
Interleave, preload duration : 500 ms







Discussion

0 Responses

Add your Response

To post your comment to this torrent, please login to our site.

Torrent Files Size
Killers Creed 2013 DVDrip Xvid Ac3-MiLLENiUM.avi 1.4 GB
sample.avi 23.2 MB
Torrent Downloaded From ExtraTorrent.com.txt 353 B

© 2014 TorLock - The No Fakes Torrent Site