The Hangover Part III R6 2013 XViD UNiQUE

Torrent Details

The Hangover Part III R6 2013 XViD UNiQUEName:The Hangover Part III R6 2013 XViD UNiQUE.torrent
Status:
This torrent has been verified!This torrent has been verified to be real and without virusses.
Category:Movies
Size:1.4 GB in 3 files
Added:Uploaded on 07-06-2013 by our crawler pet called "Spidey".
Swarm:266 seeders & 18 leechers
Vote:You got to be logged in to vote for this torrent.
Rating:No votes yet.

Torrent Download Locations

Torrent Description

Format : AVI
Format/Info : Audio Video Interleave
File size : 1.37 GiB
Duration : 1h 38mn
Overall bit rate : 1 996 Kbps
Writing application : VirtualDubMod 1.5.10.2 (build 2540/release)
Writing library : VirtualDubMod build 2540/release

Video
ID : 0
Format : MPEG-4 Visual
Format profile : Advanced Simple@L5
Format settings, BVOP : 2
Format settings, QPel : No
Format settings, GMC : No warppoints
Format settings, Matrix : Default (H.263)
Muxing mode : Packed bitstream
Codec ID : XVID
Codec ID/Hint : XviD
Duration : 1h 38mn
Bit rate : 1 858 Kbps
Width : 720 pixels
Height : 304 pixels
Display aspect ratio : 2.35:1
Frame rate : 23.976 fps
Color space : YUV
Chroma subsampling : 4:2:0
Bit depth : 8 bits
Scan type : Progressive
Compression mode : Lossy
Bits/(Pixel*Frame) : 0.354
Stream size : 1.28 GiB (93%)
Writing library : XviD 64

Audio
ID : 1
Format : MPEG Audio
Format version : Version 1
Format profile : Layer 3
Codec ID : 55
Codec ID/Hint : MP3
Duration : 1h 38mn
Bit rate mode : Constant
Bit rate : 128 Kbps
Channel(s) : 2 channels
Sampling rate : 48.0 KHz
Compression mode : Lossy
Stream size : 90.0 MiB (6%)
Alignment : Aligned on interleaves
Interleave, duration : 42 ms (1.00 video frame)
Interleave, preload duration : 504 ms
Writing library : LAME3.98.

In the aftermath of the death of Alan's father, the wolfpack decide to take Alan to get treated for his mental issues. But things start to go wrong on the way to the hospital as the wolfpack is assaulted and Doug is kidnapped. Now they must find Mr. Chow again in order to surrender him to the gangster who kidnapped Doug in order to save him.






Source Used Hangover 3 The.Hangover.Part.III.2013.X264.AC3-SmY - Thanks

Blurred out 1 watermark left both lines of subs lose way too much if cropped.If you gonna bitch tell it to someone who cares as i dont give a crap ....Subs are no biggie imo.....well they are but not

Tagged R6 but wtf R6 is DVD region code no more no less

Side note "We rose above this new breed of encoders,didnt we nick a

Discussion

1 Response

1. 13-06-2013 at 01:04 by Banned user

eat a dick

Add your Response

To post your comment to this torrent, please login to our site.

Torrent Files Size
Hangover.avi 1.4 GB
sample.avi 14.5 MB
Torrent Downloaded From ExtraTorrent.com.txt 339 B

© 2014 TorLock - The No Fakes Torrent Site