The Wolverine 2013 CAM NEW AUDiO XViD-FANTA

Torrent Details

The Wolverine 2013 CAM NEW AUDiO XViD-FANTAName:The Wolverine 2013 CAM NEW AUDiO XViD-FANTA.torrent
Status:
This torrent has been verified!This torrent has been verified to be real and without virusses.
Category:Movies
Size:1.5 GB in 6 files
Added:Uploaded on 29-07-2013 by our crawler pet called "Spidey".
Swarm:0 seeders & 0 leechers
Connect: Torlock Facebook Page
Vote:You got to be logged in to vote for this torrent.
Rating:No votes yet.

Torrent Download Locations

Torrent Description





http://www.imdb.com/title/tt1430132/



Summoned to Japan by an old acquaintance, Wolverine becomes embroiled in a conflict that forces him to confront his own demons.



Director:
James Mangold

Writers:
Mark Bomback (screenplay), Scott Frank (screenplay)

Stars:
Hugh Jackman, Tao Okamoto, Rila Fukushima

Genres:
Action | Adventure | Fantasy | Sci-Fi

Country:
USA



Format : AVI
Format/Info : Audio Video Interleave
Format profile : OpenDML
Format settings : rec
File size : 1.42 GiB
Duration : 1h 58mn
Overall bit rate : 1 710 Kbps
Movie name : Rosomaha.Bessmertnyj.2013.D.TS.1400MB.INTERCINEMA
Writing application : AVI-Mux GUI 1.17.8.3, Feb 16 201019:42:50

Video
ID : 0
Format : MPEG-4 Visual
Format profile : Advanced Simple@L5
Format settings, BVOP : 2
Format settings, QPel : No
Format settings, GMC : No warppoints
Format settings, Matrix : Default (MPEG)
Codec ID : XVID
Codec ID/Hint : XviD
Duration : 1h 58mn
Bit rate : 1 512 Kbps
Width : 640 pixels
Height : 304 pixels
Display aspect ratio : 2.105
Frame rate : 29.970 fps
Color space : YUV
Chroma subsampling : 4:2:0
Bit depth : 8 bits
Scan type : Progressive
Compression mode : Lossy
Bits/(Pixel*Frame) : 0.259
Stream size : 1.25 GiB (88%)
Writing library : XviD 1.2.1 (UTC 2008-12-04)

Audio
ID : 1
Format : AC-3
Format/Info : Audio Coding 3
Mode extension : CM (complete main)
Format settings, Endianness : Big
Codec ID : 2000
Duration : 1h 58mn
Bit rate mode : Constant
Bit rate : 192 Kbps
Channel(s) : 2 channels
Channel positions : Front: L R
Sampling rate : 48.0 KHz
Bit depth : 16 bits
Compression mode : Lossy
Stream size : 163 MiB (11%)
Alignment : Aligned on interleaves
Interleave, duration : 64 ms (1.92 video frames)
Interleave, preload duration : 192 ms
Title : the wolverine 2013 cam audio-New












Discussion

0 Responses

Add your Response

To post your comment to this torrent, please login to our site.

Torrent Files Size
nf0.nfo 5.9 KB
The.Wolverine.2013.CAM.NEW.AUDiO.XViD-FANTA-SAMPLE.avi 31.8 MB
The.Wolverine.2013.CAM.NEW.AUDiO.XViD-FANTA.avi 1.4 GB
Torrent Downloaded From ExtraTorrent.com.txt 353 B
vlcsnap-2013-07-29-16h13m24s96.png 378.3 KB
vlcsnap-2013-07-29-16h13m41s13.png 279.1 KB

© 2014 TorLock - The No Fakes Torrent Site