Hi buddy! You should sign up or login!
TorLockTorLock



Grand Masti (2013) Hindi DVDScr XviD - Exclusive

Torrent Details

Grand Masti (2013) Hindi DVDScr XviD - ExclusiveName:Grand Masti (2013) Hindi DVDScr XviD - Exclusive.torrent
Status:
This torrent has been verified!This torrent has been verified to be real and without virusses.
Category:Movies
Size:681 MB in 1 file
Added:Uploaded on 15-09-2013 by our crawler pet called "Spidey".
Swarm:2 seeders & 0 leechers
Vote:You got to be logged in to vote for this torrent.
Rating:No votes yet.

Torrent Download Locations

Torrent Description
Code:

Format version : Version 2
File size : 681 MiB
Duration : 2h 13mn
Overall bit rate mode : Constant
Overall bit rate : 713 Kbps
Encoded date : UTC 2013-09-15 07:33:17
Writing application : TMPGEnc Video Mastering Works 5 Version. 5.0.6.38
Writing library : TMPGEnc Video Mastering Works 5 Version. 5.0.6.38

Video
ID : 2
Format : AVC
Format/Info : Advanced Video Codec
Format profile : [email protected]
Format settings, CABAC : Yes
Format settings, ReFrames : 3 frames
Codec ID : V_MPEG4/ISO/AVC
Duration : 2h 13mn
Bit rate mode : Constant
Bit rate : 315 Kbps
Nominal bit rate : 346 Kbps / 346 Kbps
Width : 572 pixels
Height : 236 pixels
Display aspect ratio : 2.936
Original display aspect ratio : 2.938
Frame rate mode : Constant
Frame rate : 23.976 fps
Standard : NTSC
Color space : YUV
Chroma subsampling : 4:2:0
Bit depth : 8 bits
Scan type : Progressive
Bits/(Pixel*Frame) : 0.097
Stream size : 301 MiB (44%)
Writing library : x264 core 114
Default : Yes
Forced : No
Color primaries : BT.601 NTSC
Transfer characteristics : BT.601
Matrix coefficients : BT.601

Audio
ID : 1
Format : AC-3
Format/Info : Audio Coding 3
Mode extension : CM (complete main)
Format settings, Endianness : Big
Codec ID : A_AC3
Duration : 2h 13mn
Bit rate mode : Constant
Bit rate : 384 Kbps
Channel(s) : 6 channels
Channel positions : Front: L C R, Side: L R, LFE
Sampling rate : 48.0 KHz
Bit depth : 16 bits
Compression mode : Lossy
Stream size : 366 MiB (54%)
Default : Yes
Forced : No



Screens:












Discussion

0 Responses

There are no responses yet

Add your Response

To post your comment to this torrent, please login to our site.

Torrent Files Size
Grand Masti (2013) Hindi DVDScr XviD - Exclusive.mkv 680.8 MB