Grand Masti (2013) 720p Hindi NEW SOURCE DvDSCR X264 -==

Torrent Details

Grand Masti (2013) 720p Hindi nEW sOURCE DvDSCR X264  -==Name:Grand Masti (2013) 720p Hindi nEW sOURCE DvDSCR X264 -==.torrent
Status:
This torrent has been verified!This torrent has been verified to be real and without virusses.
Category:Movies
Size:897 MB in 1 file
Added:Uploaded on 16-09-2013 by our crawler pet called "Spidey".
Swarm:0 seeders & 0 leechers
Vote:You got to be logged in to vote for this torrent.
Rating:No votes yet.

Torrent Download Locations

Torrent Description

Grand Masti (2013)





Code: http://www.imdb.com/title/tt2476154/

Rip Code

Code:
General
Unique ID : 226855221515940165141704103708681483627 (0xAAAAB9F663082B539ECC6CE48432B56B)
Complete name : E:Ddh Upload My RipsGrand Masti (2013) 720p Hindi nEW sOURCE DvDSCR X264 [xRG] -=[ShareKing]=-.mkv
Format : Matroska
Format version : Version 2
File size : 897 MiB
Duration : 2h 13mn
Overall bit rate : 940 Kbps
Encoded date : UTC 2013-09-16 01:26:24
Writing application : mkvmerge v6.2.0 ('Promised Land') built on Apr 28 2013 12:22:01
Writing library : libebml v1.3.0 + libmatroska v1.4.0

Video
ID : 1
Format : AVC
Format/Info : Advanced Video Codec
Format profile : [email protected]
Format settings, CABAC : Yes
Format settings, ReFrames : 5 frames
Codec ID : V_MPEG4/ISO/AVC
Duration : 2h 13mn
Bit rate : 811 Kbps
Width : 1 280 pixels
Height : 512 pixels
Display aspect ratio : 2.500
Frame rate mode : Constant
Frame rate : 23.976 fps
Color space : YUV
Chroma subsampling : 4:2:0
Bit depth : 8 bits
Scan type : Progressive
Bits/(Pixel*Frame) : 0.052
Stream size : 757 MiB (84%)
Title : WWW.DESIDHAMAL.COM
Writing library : x264 core 133 r2334 a3ac64b
Encoding settings : cabac=1 / ref=5 / deblock=1:-2:-1 / analyse=0x3:0x113 / me=umh / subme=5
/ psy=1 / psy_rd=1.00:0.00 / mixed_ref=1 / me_range=16 / chroma_me=1 / trellis=1 / 8x8dct=1 / cqm=0 / deadzone=21,11
/ fast_pskip=1 / chroma_qp_offset=0 / threads=12 / lookahead_threads=3 / sliced_threads=0 / nr=0 / decimate=1 /
interlaced=0 / bluray_compat=0 / constrained_intra=0 / bframes=16 / b_pyramid=2 / b_adapt=1 / b_bias=0 / direct=3
/ weightb=1 / open_gop=0 / weightp=2 / keyint=240 / keyint_min=23 / scenecut=40 / intra_refresh=0 / rc_lookahead=40
/ rc=2pass / mbtree=1 / bitrate=811 / ratetol=1.0 / qcomp=0.60 / qpmin=10 / qpmax=51 / qpstep=4 / cplxblur=20.0 /
qblur=0.5 / ip_ratio=1.40 / aq=2:1.00
Language : English
Default : Yes
Forced : No

Audio
ID : 2
Format : MPEG Audio
Format version : Version 1
Format profile : Layer 3
Mode : Joint stereo
Mode extension : MS Stereo
Codec ID : A_MPEG/L3
Codec ID/Hint : MP3
Duration : 2h 13mn
Bit rate mode : Constant
Bit rate : 128 Kbps
Channel(s) : 2 channels
Sampling rate : 48.0 KHz
Compression mode : Lossy
Stream size : 122 MiB (14%)
Title : WWW.DESIDHAMAL.COM
Writing library : LAME3.99r
Encoding settings : -m j -V 4 -q 2 -lowpass 17 -b 128
Language : Hindi
Default : Yes
Forced : No


##ScreenShoot##












[URL="http://www.mediafire.com/?18104qkqybq064m"]Sample[/URL]



xRG xCLUSIV

Discussion

0 Responses

There are no responses yet

Add your Response

To post your comment to this torrent, please login to our site.

Torrent Files Size
Grand Masti (2013) 720p Hindi nEW sOURCE DvDSCR X264 [xRG] -=[ShareKing]=-.mkv 897.5 MB

© 2014 TorLock - The No Fakes Torrent Site