Loading...

Grand Masti 2 2013 Hindi Movies HDDVDScrRip X264 New Source +Sample ~ A ...

Torrent Details

Grand Masti 2 2013 Hindi Movies HDDVDScrRip X264 New Source +Sample ~ a ...Name:Grand Masti 2 2013 Hindi Movies HDDVDScrRip X264 New Source +Sample ~ a ....torrent
Status:
This torrent has been verified!This torrent has been verified to be real and without virusses.
Category:Movies
Size:701 MB in 2 files
Added:Uploaded on 17-09-2013 by our crawler pet called "Spidey".
Swarm:0 seeders & 0 leechers
Connect: Torlock Facebook Page
Vote:You got to be logged in to vote for this torrent.
Rating:No votes yet.

Torrent Download Locations

Torrent Description

Grand Masti 2 2013 Hindi Movies HDDVDScrRip X264 New Source +Sample ~ ☻rDX☻

Please check SCREEN SHOTS first :

http://myimghosting.serveftp.com/13/GrandMastids.html

http://myimghost.cwahi.net/GrandMastids.html

All rDX torrents are Seeding From the 1Gbps Seedbox 24X7







Format : Matroska
Format version : Version 1
File size : 687 MiB
Duration : 2h 11mn
Overall bit rate : 732 Kbps
Encoded date : UTC 2013-09-17 04:37:54
Writing application : mkvmerge v2.5.3 ('Boogie') built on Mar 7 2009 15:00:41
Writing library : libebml v0.7.7 + libmatroska v0.8.1

Video
ID : 1
Format : AVC
Format/Info : Advanced Video Codec
Format profile : [email protected]
Format settings, CABAC : Yes
Format settings, ReFrames : 4 frames
Codec ID : V_MPEG4/ISO/AVC
Duration : 2h 11mn
Bit rate : 601 Kbps
Width : 720 pixels
Height : 320 pixels
Display aspect ratio : 2.25:1
Frame rate mode : Constant
Frame rate : 23.976 fps
Color space : YUV
Chroma subsampling : 4:2:0
Bit depth : 8 bits
Scan type : Progressive
Bits/(Pixel*Frame) : 0.109
Stream size : 553 MiB (81%)
Title : www.desidhamal.com
Writing library : x264 core 133 r2334 a3ac64b
Default : Yes
Forced : No

Audio
ID : 2
Format : MPEG Audio
Format version : Version 1
Format profile : Layer 3
Mode : Joint stereo
Mode extension : MS Stereo
Codec ID : A_MPEG/L3
Codec ID/Hint : MP3
Duration : 2h 13mn
Bit rate mode : Constant
Bit rate : 128 Kbps
Channel(s) : 2 channels
Sampling rate : 48.0 KHz
Compression mode : Lossy
Stream size : 122 MiB (18%)
Title : www.desidhamal.com
Writing library : LAME3.99r
Encoding settings : -m j -V 4 -q 2 -lowpass 17 -b 128
Language : Hindi
Default : Yes
Forced

Discussion

0 Responses

There are no responses yet

Add your Response

To post your comment to this torrent, please login to our site.

Torrent Files Size
Grand Masti 2 2013 Hindi Movies HDDVDScrRip X264 New Source ~ ☻rDX☻.mkv 687.2 MB
Sample ~ Grand Masti 2 2013 Hindi Movies HDDVDScrRip X264 New Source ~ ☻rDX☻.mkv 14.2 MB

© 2014 TorLock - The No Fakes Torrent Site