Hi buddy! You should sign up or login!
TorLockTorLock



Turbo 2013 BR-RiP XViD AC3 MURDER

Torrent Details

Turbo 2013 BR-RiP XViD AC3 MURDERName:Turbo 2013 BR-RiP XViD AC3 MURDER.torrent
Status:
This torrent has been verified!This torrent has been verified to be real and without virusses.
Category:Movies
Size:739 MB in 8 files
Added:Uploaded on 25-10-2013 by our crawler pet called "Spidey".
Swarm:0 seeders & 0 leechers
Vote:You got to be logged in to vote for this torrent.
Rating:No votes yet.

Torrent Download Locations

Torrent Description













[font="Comic Sans MS"]General
Complete name : Turbo 2013 BR-RiP XViD AC3 MURDER.mkv
Format : Matroska
Format version : Version 2
File size : 737 MiB
Duration : 1h 35mn
Overall bit rate : 1 076 Kbps
Encoded date : UTC 2013-10-25 09:33:16
Writing application : mkvmerge v6.2.0 ('Promised Land') built on Apr 28 2013 12:22:01
Writing library : libebml v1.3.0 + libmatroska v1.4.0

Video
ID : 1
Format : MPEG-4 Visual
Format profile : Advanced Simple@L5
Format settings, BVOP : Yes
Format settings, QPel : No
Format settings, GMC : No warppoints
Format settings, Matrix : Default (H.263)
Codec ID : V_MS/VFW/FOURCC / XVID
Codec ID/Hint : XviD
Duration : 1h 35mn
Bit rate : 863 Kbps
Width : 656 pixels
Height : 272 pixels
Display aspect ratio : 2.40:1
Frame rate mode : Constant
Frame rate : 23.976 fps
Color space : YUV
Chroma subsampling : 4:2:0
Bit depth : 8 bits
Scan type : Progressive
Compression mode : Lossy
Bits/(Pixel*Frame) : 0.202
Stream size : 591 MiB (80%)
Writing library : XviD
Default : Yes
Forced : No

Audio
ID : 2
Format : AC-3
Format/Info : Audio Coding 3
Mode extension : CM (complete main)
Format settings, Endianness : Big
Codec ID : A_AC3
Duration : 1h 35mn
Bit rate mode : Constant
Bit rate : 192 Kbps
Channel count : 2 channels
Channel positions : Front: L R
Sampling rate : 48.0 KHz
Bit depth : 16 bits
Compression mode : Lossy
Stream size : 131 MiB (18%)
Default : Yes
Forced : No


SOURCE WAS AQOS .....THANKS
[/
Discussion

0 Responses

There are no responses yet

Add your Response

To post your comment to this torrent, please login to our site.

Torrent Files Size
78744_front.jpg 606.4 KB
New Text Document.txt 2.8 KB
Turbo 2013 BR-RiP XViD AC3 MURDER.mkv 736.6 MB
vlcsnap-2013-10-25-10h35m30s11.png 296.4 KB
vlcsnap-2013-10-25-10h35m34s50.png 307.6 KB
vlcsnap-2013-10-25-10h35m38s85.png 208.7 KB
vlcsnap-2013-10-25-10h35m51s216.png 247.7 KB
vlcsnap-2013-10-25-10h35m57s26.png 286.8 KB