Hi buddy! You should sign up or login!
TorLockTorLock



Chennai Express (2013) 720p Blu-Ray X264 - Hindi - AC3 - 5 1 - Mafiaking

Torrent Details

Chennai Express (2013) 720p Blu-Ray x264 - Hindi - AC3  - 5 1 - MafiakingName:Chennai Express (2013) 720p Blu-Ray x264 - Hindi - AC3 - 5 1 - Mafiaking.torrent
Status:
This torrent has been verified!This torrent has been verified to be real and without virusses.
Category:Movies
Size:1 GB in 4 files
Added:Uploaded on 16-11-2013 by our crawler pet called "Spidey".
Swarm:0 seeders & 0 leechers
Vote:You got to be logged in to vote for this torrent.
Rating:No votes yet.

Torrent Download Locations

Torrent Description




Quote:


IMDB Rating: 6.1/10.0


GENRE: Action | Comedy | Romance




General
Unique ID : 183016182898150827057710665186108121958 (0x89AFA27B60C95950963D48EACE5A2366)
Complete name : Chennai Express (2013) 720p Blu-Ray x264 - Hindi - AC3 - 5.1 - Mafiaking.mkv
Format : Matroska
Format version : Version 4 / Version 2
File size : 1.02 GiB
Duration : 2h 21mn
Overall bit rate : 1 036 Kbps
Movie name : Chennai Express (2013) 720p Blu-Ray x264 - Hindi - AC3 - 5.1 - Mafiaking
Encoded date : UTC 2013-11-16 13:31:45
Writing application : mkvmerge v6.2.0 ('Promised Land') built on Apr 28 2013 12:22:01
Writing library : libebml v1.3.0 + libmatroska v1.4.0


Video
ID : 1
Format : AVC
Format/Info : Advanced Video Codec
Format profile : [email protected]
Format settings, CABAC : Yes
Format settings, ReFrames : 5 frames
Codec ID : V_MPEG4/ISO/AVC
Duration : 2h 21mn
Bit rate : 874 Kbps
Width : 1 280 pixels
Height : 544 pixels
Display aspect ratio : 2.35:1
Frame rate mode : Constant
Frame rate : 24.000 fps
Color space : YUV
Chroma subsampling : 4:2:0
Bit depth : 8 bits
Scan type : Progressive
Bits/(Pixel*Frame) : 0.052
Stream size : 864 MiB (83%)
Title : Mafiakintg
Writing library : x264 core 133 r2334 a3ac64b

Language : Hindi
Default : Yes
Forced : No


Audio
ID : 2
Format : AC-3
Format/Info : Audio Coding 3
Mode extension : CM (complete main)
Format settings, Endianness : Big
Codec ID : A_AC3
Duration : 2h 21mn
Bit rate mode : Constant
Bit rate : 160 Kbps
Channel(s) : 6 channels
Channel positions : Front: L C R, Side: L R, LFE
Sampling rate : 48.0 KHz
Bit depth : 16 bits
Compression mode : Lossy
Stream size : 162 MiB (15%)
Title : Mafiaking
Language : Hindi
Default : Yes
Forced : No



SAMPLE WITH IN TORRENT































Special Thanks To DDR For Source.

Discussion

0 Responses

There are no responses yet

Add your Response

To post your comment to this torrent, please login to our site.

Torrent Files Size
Chennai Express (2013) 720p Blu-Ray x264 - Hindi - AC3 - 5.1 - Mafiaking.mkv 1 GB
Chennai Express (2013) 720p Blu-Ray x264 - Hindi - AC3 - 5.1 - Mafiaking.srt 234.2 KB
SaMple-Chennai Express (2013) 720p Blu-Ray x264 - Hindi - AC3 - 5.1 - Mafiaking.mkv 4.8 MB
Torrent Downloaded From ExtraTorrent.cc.txt 352 B