Loading...

The Hobbit The Desolation Of Smaug (2013) DVDSCR XviD-MAXSPEED

Torrent Details

The Hobbit The Desolation of Smaug (2013) DVDSCR XviD-MAXSPEEDName:The Hobbit The Desolation of Smaug (2013) DVDSCR XviD-MAXSPEED.torrent
Status:
This torrent has been verified!This torrent has been verified to be real and without virusses.
Category:Movies
Size:1.9 GB in 5 files
Added:Uploaded on 28-12-2013 by our crawler pet called "Spidey".
Swarm:3 seeders & 0 leechers
Connect: Torlock Facebook Page
Vote:You got to be logged in to vote for this torrent.
Rating:No votes yet.

Torrent Download Locations

Torrent Description

http://www.torentz.3xforum.ro/post/3315/1/The_Hobbit_The_Desolation_of_Smaug_2013_DVDSCR_XviD-MAXSPEED/

http://www.torentz.3xforum.ro/post/3315/1/The_Hobbit_The_Desolation_of_Smaug_2013_DVDSCR_XviD-MAXSPEED/



Screens:






ScreenCaps:



Code: The Hobbit The Desolation of Smaug (2013) DVDSCR XviD-MAXSPEED
Format : AVI
Format/Info : Audio Video Interleave
Format profile : OpenDML
Format settings : rec
File size : 1.91 GiB
Duration : 2h 41mn
Overall bit rate : 1 697 Kbps
Writing application : VirtualDubMod 1.5.10.2 (build 2542/release)
Writing library : VirtualDubMod build 2542/release
Original source form : MAX TORRENTZ
Copyright : SIGISMUNT

Video
ID : 0
Format : MPEG-4 Visual
Format profile : Advanced Simple@L5
Format settings, BVOP : 2
Format settings, QPel : Yes
Format settings, GMC : No warppoints
Format settings, Matrix : Default (H.263)
Muxing mode : Packed bitstream
Codec ID : XVID
Codec ID/Hint : XviD
Duration : 2h 41mn
Bit rate : 1 499 Kbps
Width : 636 pixels
Height : 264 pixels
Display aspect ratio : 2.40:1
Frame rate : 29.970 fps
Color space : YUV
Chroma subsampling : 4:2:0
Bit depth : 8 bits
Scan type : Progressive
Compression mode : Lossy
Bits/(Pixel*Frame) : 0.298
Stream size : 1.69 GiB (88%)
Writing library : XviD 1.2.1 (UTC 2008-12-04)

Audio
ID : 1
Format : AC-3
Format/Info : Audio Coding 3
Mode extension : CM (complete main)
Format settings, Endianness : Big
Codec ID : 2000
Duration : 2h 41mn
Bit rate mode : Constant
Bit rate : 192 Kbps
Channel(s) : 2 channels
Channel positions : Front: L R
Sampling rate : 48.0 KHz
Bit depth : 16 bits
Compression mode : Lossy
Stream size : 221 MiB (11%)
Alignment : Aligned on interleaves
Interleave, duration : 64 ms (1.92 video frames)
Interleave, preload duration : 192 ms

Source: Mother Russia-medium a/v quality,english good synced audio,
english hardcoded subtitles for elf/orc/etc language,sample included
This torrent is not seedbox supported,please seed it to the MAX

Uploader: Download sample and see if you like quality if not wait for blurayrip
in about 3 months, Happy Holidays for another year of sharing, thanks for downloading

Note: If you have something to offer as early releases,seedboxes,
contact us on http://torentz.3xforum.ro or http://torentz.tk

How To Get Your MAXSPEED (uTorrent)

Torrent Client - Preferences - Bandwidth - Number of connections - Set aprox. 500 for each
Torrent Client - Preferences - BiTorrent - Protocol Encryption - Forced
Bandwidth Allocation - High (Set download/upload limit - Unlimited)
Stop Other Active Torrents - Start downloading and wait for connections.
Enjoy and Seed for at least 1:1 ratio. Don't forget to say thanks/leave reviews.
If screens/Caps image host is dead google search "release name""screens" or "sample".
Greets to all actual/future p2p/scene QUALITY groups and affiliate websites.
Don't trust IMDb robot or bad ratings,always watch some trailers first.
Ignore stupid comments/fake/mislabeled/no-DVDrips/CAM/TS/RAR uploads.
Please spread this release/torrent to your friends/forums/etc.
If you need translation subs visit some subtitles sites.
Report if you see online streaming or other spam links.
Recommended movie player VLC PL

Discussion

0 Responses

There are no responses yet

Add your Response

To post your comment to this torrent, please login to our site.

Torrent Files Size
sample.avi 4.5 MB
screencaps.jpeg 554.8 KB
The Hobbit The Desolation of Smaug (2013) DVDSCR XviD-MAXSPEED www.torentz.3xforum.ro.avi 1.9 GB
The Hobbit The Desolation of Smaug (2013) DVDSCR XviD-MAXSPEED.nfo 3.6 KB
Torrent Downloaded From ExtraTorrent.cc.txt 39 B

© 2014 TorLock - The No Fakes Torrent Site