Loading...
Welcome. We are currently moving servers physically to a new location and you have reached our new servers.
If things don't work, please be patient, we are working on getting everything up asap.

Katy B - Crying For No Reason 1080p MP4

Torrent Details

Katy B - Crying For No Reason  1080p  MP4Name:Katy B - Crying For No Reason 1080p MP4.torrent
Status:
This torrent has been verified!This torrent has been verified to be real and without virusses.
Category:Music
Size:77 MB in 1 file
Added:Uploaded on 10-01-2014 by our crawler pet called "Spidey".
Swarm:5 seeders & 0 leechers
Connect: Torlock Facebook Page
Vote:You got to be logged in to vote for this torrent.
Rating:No votes yet.

Torrent Download Locations

Torrent Description

General
Complete name : Katy B - Crying For No Reason [Music Video] 1080p [Sbyky].MP4
Format : MPEG-4
Format profile : Base Media
Codec ID : isom
File size : 77.4 MiB
Duration : 4mn 1s
Overall bit rate mode : Variable
Overall bit rate : 2 693 Kbps
Encoded date : UTC 2013-12-31 10:34:39
Tagged date : UTC 2013-12-31 10:34:39

Video
ID : 1
Format : AVC
Format/Info : Advanced Video Codec
Format profile : [email protected]
Format settings, CABAC : Yes
Format settings, ReFrames : 3 frames
Codec ID : avc1
Codec ID/Info : Advanced Video Coding
Duration : 4mn 0s
Bit rate : 2 565 Kbps
Width : 1 920 pixels
Height : 1 080 pixels
Display aspect ratio : 16:9
Frame rate mode : Constant
Frame rate : 25.000 fps
Color space : YUV
Chroma subsampling : 4:2:0
Bit depth : 8 bits
Scan type : Progressive
Bits/(Pixel*Frame) : 0.049
Stream size : 73.7 MiB (95%)
Encoded date : UTC 2013-12-31 10:34:39
Tagged date : UTC 2013-12-31 10:34:39

Audio
ID : 2
Format : AAC
Format/Info : Advanced Audio Codec
Format profile : LC
Codec ID : 40
Duration : 4mn 1s
Bit rate mode : Variable
Bit rate : 126 Kbps
Channel(s) : 2 channels
Channel positions : Front: L R
Sampling rate : 44.1 KHz
Compression mode : Lossy
Delay relative to video : 40ms
Stream size : 3.61 MiB (5%)
Encoded date : UTC 2013-12-31 10:34:25
Tagged date : UTC 2013-12-31 10:34:25

Shared By Sbyky

Discussion

0 Responses

There are no responses yet

Add your Response

To post your comment to this torrent, please login to our site.

Torrent Files Size
Katy B - Crying For No Reason [Music Video] 1080p [Sbyky].MP4 77.4 MB

© 2014 TorLock - The No Fakes Torrent Site