Freezer (2014) DD5 1 NL Subs BR2DVD-NLU002

Torrent Details

Freezer (2014) DD5 1 NL Subs BR2DVD-NLU002Name:Freezer (2014) DD5 1 NL Subs BR2DVD-NLU002.torrent
Status:
This torrent has been verified!This torrent has been verified to be real and without virusses.
Category:Movies
Size:3.9 GB in 15 files
Added:Uploaded on 11-01-2014 by our crawler pet called "Spidey".
Swarm:0 seeders & 0 leechers
Connect: Torlock Facebook Page
Vote:You got to be logged in to vote for this torrent.
Rating:No votes yet.

Torrent Download Locations

Torrent Description

Freezer (2014) DD5.1 NL Subs BR2DVD-NLU002
.

.
R - - Action | Thriller - 17 January 2014 (USA)
Rated R for language and some bloody violence
.
http://www.imdb.com/title/tt2325002/
.
http://www.moviemeter.nl/film/94458
.
PLOT
.
Robert is an ordinary man who is faced with extraordinary circumstances.
He is locked in a meat freezer by Russian thugs who believe that he owes them 8 million dollars.
Robert, who is in ...
.
Source: 1080p
Format: DVD5
Video: NTSC
Audio: English DD5.1
Subtitles: Dutch. White and yellow.
NL Vertaling: JVdS
Notes vertaling: Niet klagen over de vertaling
Er is nog geen betere beschikbaar.
Deze vertaler is een google vertaler, dit zie je al na een paar regels.
Notes van de Vertaler.
Sorry voor eventuele foutjes maar ze zijn eigenlijk voor mezelf en wat vrienden gemaakt.
Menu: Yes custom by NLU002
Program Used: TMPG Autoring Works 5
.
Enjoy
.
Overall bit rate : 6 510 Kbps
Writing library : encoded by TMPGEnc Authoring Works 5 Version. 5.1.3.57

Video
ID : 224 (0xE0)
Format : MPEG Video
Format version : Version 2
Format profile : Main@Main
Format settings, BVOP : Yes
Format settings, Matrix : Custom
Format settings, GOP : M=3, N=12
Duration : 21mn 59s
Bit rate mode : Variable
Bit rate : 5 932 Kbps
Maximum bit rate : 8 000 Kbps
Width : 720 pixels
Height : 480 pixels
Display aspect ratio : 16:9
Frame rate : 23.976 fps
Standard : NTSC
Color space : YUV
Chroma subsampling : 4:2:0
Bit depth : 8 bits
Scan type : Progressive
Scan order : 2:3 Pulldown
Compression mode : Lossy
Bits/(Pixel*Frame) : 0.716
Time code of first frame : 00:00:00:00
Time code source : Group of pictures header
Stream size : 933 MiB (91%)
Source encoded stream size : encoded by TMPGEnc Authoring Works 5 Version. 5.1.3.57
Writing library : TMPGEnc Authoring Works 5 Version. 5.1.3.57
Color primaries : BT.601 NTSC
Transfer characteristics : BT.601
Matrix coefficients : BT.601

Audio
ID : 189 (0xBD)-128 (0x80)
Format : AC-3
Format/Info : Audio Coding 3
Mode extension : CM (complete main)
Format settings, Endianness : Big
Muxing mode : DVD-Video
Duration : 21mn 59s
Bit rate mode : Constant
Bit rate : 448 Kbps
Channel(s) : 6 channels
Channel positions : Front: L C R, Side: L R, LFE
Sampling rate : 48.0 KHz
Bit depth : 16 bits
Compression mode : Lossy
Stream size : 70.4 MiB (7%)

Discussion

0 Responses

There are no responses yet

Add your Response

To post your comment to this torrent, please login to our site.

Torrent Files Size
Freezer (2014) DD5.1 NL Subs BR2DVD-NLU002.nfo 3.5 KB
Freezer (2014) DD5.1 NL Subs BR2DVD-NLU002/VIDEO_TS/VIDEO_TS.BUP 8 KB
Freezer (2014) DD5.1 NL Subs BR2DVD-NLU002/VIDEO_TS/VIDEO_TS.IFO 8 KB
Freezer (2014) DD5.1 NL Subs BR2DVD-NLU002/VIDEO_TS/VTS_01_0.BUP 78 KB
Freezer (2014) DD5.1 NL Subs BR2DVD-NLU002/VIDEO_TS/VTS_01_0.IFO 78 KB
Freezer (2014) DD5.1 NL Subs BR2DVD-NLU002/VIDEO_TS/VTS_01_0.VOB 40.2 MB
Freezer (2014) DD5.1 NL Subs BR2DVD-NLU002/VIDEO_TS/VTS_01_1.VOB 1023.8 MB
Freezer (2014) DD5.1 NL Subs BR2DVD-NLU002/VIDEO_TS/VTS_01_2.VOB 1023.8 MB
Freezer (2014) DD5.1 NL Subs BR2DVD-NLU002/VIDEO_TS/VTS_01_3.VOB 1023.8 MB
Freezer (2014) DD5.1 NL Subs BR2DVD-NLU002/VIDEO_TS/VTS_01_4.VOB 844.3 MB
Torrent Downloaded From ExtraTorrent.com.txt 339 B
Torrent Downloaded from SilverTorrents.org.txt 41 B
Torrent_Downloaded_from_1337x.org.txt 224 B
Torrent_Downloaded_from_kickass.to.txt 494 B
Torrent_Downloaded_from_thepiratebay.se.txt 230 B

© 2014 TorLock - The No Fakes Torrent Site