The Hunger Games Catching Fire (2013) DVDRip XviD-MAXSPEED

Torrent Details

The Hunger Games Catching Fire (2013) DVDRip XviD-MAXSPEEDName:The Hunger Games Catching Fire (2013) DVDRip XviD-MAXSPEED.torrent
Status:
This torrent has been verified!This torrent has been verified to be real and without virusses.
Category:Movies
Size:1.6 GB in 5 files
Added:Uploaded on 19-01-2014 by our crawler pet called "Spidey".
Swarm:0 seeders & 0 leechers
Connect: Torlock Facebook Page
Vote:You got to be logged in to vote for this torrent.
Rating:No votes yet.

Torrent Download Locations

Torrent Description

http://www.torentz.3xforum.ro/post/3345/1/The_Hunger_Games_Catching_Fire_2013_DVDRip_XviD-MAXSPEED/

http://www.torentz.3xforum.ro/post/3345/1/The_Hunger_Games_Catching_Fire_2013_DVDRip_XviD-MAXSPEED/



Screens:






ScreenCaps:



Code: The Hunger Games Catching Fire (2013) DVDRip XviD-MAXSPEED
Format : AVI
Format/Info : Audio Video Interleave
Format profile : OpenDML
Format settings : rec
File size : 1.55 GiB
Duration : 2h 26mn
Overall bit rate : 1 518 Kbps
Writing application : VirtualDubMod 1.5.10.2 (build 2542/release)
Writing library : VirtualDubMod build 2542/release
Original source form : MAX TORRENTZ
Copyright : SIGISMUNT

Video
ID : 0
Format : MPEG-4 Visual
Format profile : Advanced Simple@L5
Format settings, BVOP : 2
Format settings, QPel : No
Format settings, GMC : No warppoints
Format settings, Matrix : Default (H.263)
Muxing mode : Packed bitstream
Codec ID : XVID
Codec ID/Hint : XviD
Duration : 2h 26mn
Bit rate : 1 128 Kbps
Width : 720 pixels
Height : 304 pixels
Display aspect ratio : 2.35:1
Frame rate : 23.976 fps
Color space : YUV
Chroma subsampling : 4:2:0
Bit depth : 8 bits
Scan type : Progressive
Compression mode : Lossy
Bits/(Pixel*Frame) : 0.215
Stream size : 1.15 GiB (74%)
Writing library : XviD 64

Audio
ID : 1
Format : AC-3
Format/Info : Audio Coding 3
Mode extension : CM (complete main)
Format settings, Endianness : Big
Codec ID : 2000
Duration : 2h 26mn
Bit rate mode : Constant
Bit rate : 384 Kbps
Channel(s) : 6 channels
Channel positions : Front: L C R, Side: L R, LFE
Sampling rate : 48.0 KHz
Bit depth : 16 bits
Compression mode : Lossy
Stream size : 402 MiB (25%)
Alignment : Aligned on interleaves
Interleave, duration : 64 ms (1.53 video frames)
Interleave, preload duration : 192 ms

Source: DVD (perfect a/v/sync quality,sample included)
This torrent is not seedbox supported,please seed it to the MAX

Note: If you have something to offer as early releases,seedboxes,
contact us on http://torentz.3xforum.ro or http://torentz.tk

How To Get Your MAXSPEED (uTorrent)

Torrent Client - Preferences - Bandwidth - Number of connections - Set aprox. 500 for each
Torrent Client - Preferences - BiTorrent - Protocol Encryption - Forced
Bandwidth Allocation - High (Set download/upload limit - Unlimited)
Stop Other Active Torrents - Start downloading and wait for connections.
Enjoy and Seed for at least 1:1 ratio. Don't forget to say thanks/leave reviews.
If screens/Caps image host is dead googlesearch "release name"+"screens" or "sample".
Greets to all actual/future p2p/scene QUALITY groups and affiliate websites.
Don't trust IMDb robot or bad ratings,always watch some trailers first.
Ignore stupid comments/fake/mislabeled/no-DVDrips/CAM/TS/RAR uploads.
Please spread this release/torrent to your friends/forums/etc.
If you need translation subs visit some subtitles sites.
Report if you see online streaming or other spam links.
Recommended movie player VLC PL

Discussion

0 Responses

There are no responses yet

Add your Response

To post your comment to this torrent, please login to our site.

Torrent Files Size
sample.avi 6.8 MB
screencaps.jpeg 509.4 KB
The Hunger Games Catching Fire (2013) DVDRip XviD-MAXSPEED www.torentz.3xforum.ro.avi 1.6 GB
The Hunger Games Catching Fire (2013) DVDRip XviD-MAXSPEED.nfo 3.4 KB
Torrent Downloaded From ExtraTorrent.cc.txt 39 B

© 2014 TorLock - The No Fakes Torrent Site