Loading...

The Hunger Games Catching Fire 2013 IMAX Edition BRRip XviD MP3-RARBG

Torrent Details

The Hunger Games Catching Fire 2013 IMAX Edition BRRip XviD MP3-RARBGName:The Hunger Games Catching Fire 2013 IMAX Edition BRRip XviD MP3-RARBG.torrent
Status:
This torrent has been verified!This torrent has been verified to be real and without virusses.
Category:Movies
Size:1.4 GB in 3 files
Added:Uploaded on 19-01-2014 by our crawler pet called "Spidey".
Swarm:0 seeders & 0 leechers
Connect: Torlock Facebook Page
Vote:You got to be logged in to vote for this torrent.
Rating:No votes yet.

Torrent Download Locations

Torrent Description

The Hunger Games Catching Fire 2013 IMAX Edition BRRip XviD MP3-RARBG

http://imdb.com/title/tt1951264/




Info:
Format : AVI
Format/Info : Audio Video Interleave
Format profile : OpenDML
File size : 1.40 GiB
Duration : 2h 26mn
Overall bit rate : 1 370 Kbps
Movie name : Downloaded from RARBG.COM
Writing application : Lavf55.22.103
Comment : Downloaded from RARBG.COM

Video
ID : 0
Format : xvid
Codec ID : xvid
Duration : 2h 26mn
Bit rate : 1 099 Kbps
Width : 720 pixels
Height : 405 pixels
Display aspect ratio : 16:9
Frame rate : 23.976 fps
Bits/(Pixel*Frame) : 0.157
Stream size : 1.12 GiB (80%)

Audio
ID : 1
Format : MPEG Audio
Format version : Version 1
Format profile : Layer 3
Mode : Joint stereo
Codec ID : 55
Codec ID/Hint : MP3
Duration : 2h 26mn
Bit rate mode : Constant
Bit rate : 256 Kbps
Channel(s) : 2 channels
Sampling rate : 48.0 KHz
Compression mode : Lossy
Stream size : 268 MiB (19%)
Alignment : Aligned on interleaves
Interleave, duration : 24 ms (0.58 video frame)
Writing library : LAME3.99.5


Screens:








Notes:
Greetz to everyone :)

Discussion

0 Responses

There are no responses yet

Add your Response

To post your comment to this torrent, please login to our site.

Torrent Files Size
RARBG.com.txt 34 B
The.Hunger.Games.Catching.Fire.2013.IMAX.Edition.BRRip.XviD.MP3-RARBG.avi 1.4 GB
The.Hunger.Games.Catching.Fire.2013.IMAX.Edition.BRRip.XviD.MP3-RARBG.nfo 2.6 KB

© 2014 TorLock - The No Fakes Torrent Site