Hi buddy! You should sign up or login!
TorLockTorLock



Chaar Bottle Vodka Yo Yo Honey Singh 720p - HD - MP4

Torrent Details

Chaar Bottle Vodka Yo Yo Honey Singh  720p - HD - MP4 Name:Chaar Bottle Vodka Yo Yo Honey Singh 720p - HD - MP4 .torrent
Status:
This torrent has been verified!This torrent has been verified to be real and without virusses.
Category:Music
Size:62 MB in 5 files
Added:Uploaded on 26-02-2014 by our crawler pet called "Spidey".
Swarm:0 seeders & 0 leechers
Vote:You got to be logged in to vote for this torrent.
Rating:No votes yet.

Torrent Download Locations

Torrent Description
Chaar Bottle Vodka Yo Yo Honey Singh 720p - HD - MP4 - { [ ( MALIK SARWAR ) ] }


INFO

Song: Char Botal Vodka
Singer: Yo Yo Honey Singh
Music Director: Yo Yo Honey Singh
Lyrics: Ustad Bhagdarh Ali Khan
Movie: Ragini MMS 2
Music Label: T-Series

General

Complete name : Chaar Bottle Vodka Yo Yo Honey Singh 720p - HD - MP4 - { [ ( MALIK SARWAR ) ] }.mp4
Format : MPEG-4
Format profile : Base Media / Version 2
Codec ID : mp42
File size : 56.7 MiB
Duration : 2mn 35s
Overall bit rate mode : Variable
Overall bit rate : 3 064 Kbps



Video

ID : 1
Format : AVC
Format/Info : Advanced Video Codec
Format profile : [email protected]
Format settings, CABAC : Yes
Format settings, ReFrames : 1 frame
Codec ID : avc1
Codec ID/Info : Advanced Video Coding
Duration : 2mn 35s
Bit rate : 2 870 Kbps
Maximum bit rate : 6 339 Kbps
Width : 1 280 pixels
Height : 720 pixels
Display aspect ratio : 16:9
Frame rate mode : Constant
Frame rate : 25.000 fps
Color space : YUV
Chroma subsampling : 4:2:0
Bit depth : 8 bits
Scan type : Progressive
Bits/(Pixel*Frame) : 0.125
Stream size : 53.1 MiB (94%)


Audio

ID : 2
Format : AAC
Format/Info : Advanced Audio Codec
Format profile : LC
Codec ID : 40
Duration : 2mn 35s
Bit rate mode : Variable
Bit rate : 192 Kbps
Maximum bit rate : 201 Kbps
Channel(s) : 2 channels
Channel positions : Front: L R
Sampling rate : 44.1 KHz
Compression mode : Lossy
Stream size : 3.55 MiB (6%)


Discussion

0 Responses

There are no responses yet

Add your Response

To post your comment to this torrent, please login to our site.

Torrent Files Size
1.png 2.6 MB
2.png 2.6 MB
Chaar Bottle Vodka Yo Yo Honey Singh 720p - HD - MP4 - { [ ( MALIK SARWAR ) ] }.mp4 56.7 MB
COVER.jpg 42.8 KB
screen.jpeg 212.8 KB