Leonard Cohen - 2019 - Thanks For The Dance [Hi-Res]

Torrent Details


Leonard Cohen - 2019 - Thanks for the Dance [Hi-Res]

NAME
Leonard Cohen - 2019 - Thanks for the Dance [Hi-Res].torrent
CATEGORY
Music
INFOHASH
117b568b92656b911bd52868dc1be97aa16ffe3d
SIZE
279 MB in 9 files
ADDED
Uploaded on 22-11-2019 by our crawler pet called "Spidey".
SWARM
0 seeders & 0 peers
RATING
No votes yet.

Please login to vote for this torrent.


Description





Исполнитель: Leonard Cohen

Название: Thanks for the Dance

Страна: Canada

Жанр: Folk-Rock, Art-Pop, Singer-Songriter

Год: 2019

Продолжительность: 00:29:17

Битрейт аудио: Lossless

Формат/Кодек: FLAC

Тип рипа: tracks

Разрядность: 24/44.1

Количество каналов: 2.0





01. Happens to the Heart (4:33)

02. Moving On (3:12)

03. The Night of Santiago (4:15)

04. Thanks for the Dance (4:13)

05. It's Torn (2:58)

06. The Goal (1:12)

07. Puppets (2:40)

08. The Hills (4:18)

09. Listen to the Hummingbird (2:01)



DRfoobar2000 1.4.8 / Замер динамического диапазона (DR) 1.1.1

Дата отчёта: 2019-11-22 10:13:47

--------------------------------------------------------------------------------

Анализ: Leonard Cohen / Thanks for the Dance

--------------------------------------------------------------------------------

DR Пики RMS Продолжительность трека

--------------------------------------------------------------------------------

DR13 -0.10 дБ -16.25 дБ 4:33 01-Happens to the Heart

DR13 -1.90 дБ -18.13 дБ 3:12 02-Moving On

DR14 -0.10 дБ -17.52 дБ 4:15 03-The Night of Santiago

DR14 -0.13 дБ -17.50 дБ 4:13 04-Thanks for the Dance

DR11 -0.10 дБ -14.62 дБ 2:58 05-It's Torn

DR14 -2.06 дБ -20.85 дБ 1:12 06-The Goal

DR12 -0.10 дБ -15.86 дБ 2:40 07-Puppets

DR9 -0.82 дБ -12.87 дБ 4:18 08-The Hills

DR14 -1.06 дБ -19.24 дБ 2:01 09-Listen to the Hummingbird

--------------------------------------------------------------------------------

Количество треков: 9

Реальные значения DR: DR13

Частота: 44100 Гц

Каналов: 2

Разрядность: 24

Битрейт: 1112 кбит/с

Кодек: FLAC

================================================================================

Discussion

Comments 0

Post Your Comment

Files in this torrent

FILENAMESIZE
01 Happens to the Heart.flac44.2 MB
02 Moving On.flac29.5 MB
03 The Night of Santiago.flac41 MB
04 Thanks for the Dance.flac38.5 MB
05 It's Torn.flac27.8 MB
06 The Goal.flac11 MB
07 Puppets.flac24.7 MB
08 The Hills.flac45.8 MB
09 Listen to the Hummingbird.flac16.3 MB

Alternative Torrents for 'Leonard Cohen Thanks for Dance HiRes'.

TORRENT NAMEADDEDSIZESEEDSPEERSHEALTH
1/11/2021350 MB28424
1/13/20211.8 GB262115
Yesterday20 MB239112
12/20/202026 MB2307
1/11/2021339 MB22213
1/13/2021484 MB2212
1/7/2021254 MB21111
1/11/2021350 MB20314
1/7/2021270 MB19714
1/7/2021259 MB1858
1/7/2021312 MB16911
1/14/20211.6 GB16163
1/14/20212 MB14514
1/14/2021810 MB13952
Yesterday4 MB13152