Изумрудный город (Emerald City) 1988 DVDRip

Torrent Details

Изумрудный город (Emerald City) 1988 DVDRip

NAME
Изумрудный город (Emerald City) 1988 DVDRip.torrent
CATEGORY
Movies
INFOHASH
29e9e0273a0265541432dd08e447b3560193ca66
SIZE
2.3 GB in 0 files
ADDED
Uploaded on 02-12-2019 by our crawler pet called "Spidey".
SWARM
0 seeders & 0 peers
RATING
No votes yet.

Please login to vote for this torrent.


Description

Название: Изумрудный город

Оригинальное название: Emerald City

Год выхода: 1988



Страна: Австралия

Студия: Limelight Productions (II), New South Wales Film Corporation

Продолжительность: 01:31:53

Жанр: драма, комедия



Режиссер: Майкл Дженкинс

В ролях: Джон Харгривз, Николь Кидман, Крис Хейвуд, Робин Невин, Рут Крэкнелл, Деннис Миллер, Элла Скотт, Хейдон Сэмюэлс, Николас Хэммонд, Мишель Торрес, ...





Перевод: профессиональный студийный (одноголосый, закадровый) ?





О фильме: Красивая история двух городов, четырех людей и маленьких радостей жизни… Деньги, страсть, влечение, власть и амбиции. Все это переплелось в жизни главных героев картины…













Кодек: x264

Качество: DVDRip-AVC

Видео: 748x568, 3200 kbps, 25 fps

Аудио #1: AC-3, 2 ch, 224 kbps (Rus) - VO

Аудио #2: AC-3, 2 ch, 224 kbps (Eng)

Субтитры: нет



Спасибо за исходник



MediaInfo

x264 [info]: frame I:941 Avg QP:16.64 size: 67452

x264 [info]: frame P:36919 Avg QP:19.48 size: 31253

x264 [info]: frame B:99968 Avg QP:21.52 size: 9885

x264 [info]: consecutive B-frames: 4.1% 1.6% 13.7% 47.5% 19.6% 13.2% 0.3% 0.1% 0.0% 0.0% 0.0% 0.0% 0.0%



Общее

Уникальный идентификатор : 230307944053862074910668317693088099320 (0xAD43B2539D5E0F1397DAFF202B57EBF8)

Полное имя : Изумрудный город (Emerald City) 1988 DVDRip.mkv

Формат : Matroska

Версия формата : Version 2

Размер файла : 2,34 Гбайт

Продолжительность : 1 ч. 31 м.

Общий поток : 3650 Кбит/сек

Дата кодирования : UTC 2019-11-27 09:43:48

Программа кодирования : mkvmerge v4.0.0 ('The Stars were mine') сборка от Jun 6 2010 16:18:42

Библиотека кодирования : libebml v1.0.0 + libmatroska v1.0.0



Видео

Идентификатор : 1

Формат : AVC

Формат/Информация : Advanced Video Codec

Профиль формата : [email protected]

Параметр CABAC формата : Да

Параметр ReFrames формата : 10 кадров

Идентификатор кодека : V_MPEG4/ISO/AVC

Продолжительность : 1 ч. 31 м.

Битрейт : 3200 Кбит/сек

Ширина : 748 пикселей

Высота : 568 пикселей

Соотношение сторон : 4:3

Режим частоты кадров : Постоянный

Частота кадров : 25,000 кадров/сек

Цветовое пространство : YUV

Субдискретизация насыщенности : 4:2:0

Битовая глубина : 8 бит

Тип развёртки : Прогрессивная

Бит/(Пиксели*Кадры) : 0.301

Размер потока : 2,01 Гбайт (86%)

Библиотека кодирования : x264 core 146 r2538 121396c

Настройки программы : cabac=1 / ref=10 / deblock=1:-1:-1 / analyse=0x3:0x133 / me=umh / subme=11 / psy=1 / psy_rd=1.00:0.00 / mixed_ref=1 / me_range=32 / chroma_me=1 / trellis=2 / 8x8dct=1 / cqm=0 / deadzone=21,11 / fast_pskip=0 / chroma_qp_offset=-2 / threads=12 / lookahead_threads=2 / sliced_threads=0 / nr=0 / decimate=0 / interlaced=0 / bluray_compat=0 / constrained_intra=0 / bframes=12 / b_pyramid=2 / b_adapt=2 / b_bias=0 / direct=3 / weightb=1 / open_gop=0 / weightp=2 / keyint=250 / keyint_min=25 / scenecut=40 / intra_refresh=0 / rc=2pass / mbtree=0 / bitrate=3200 / ratetol=1.0 / qcomp=0.60 / qpmin=0 / qpmax=69 / qpstep=4 / cplxblur=20.0 / qblur=0.5 / ip_ratio=1.40 / pb_ratio=1.30 / aq=2:0.80

Язык : English

Default : Нет

Forced : Нет



Аудио #1

Идентификатор : 2

Формат : AC-3

Формат/Информация : Audio Coding 3

Расширение режима : CM (complete main)

Параметр Endianness формата : Big

Идентификатор кодека : A_AC3

Продолжительность : 1 ч. 31 м.

Вид битрейта : Постоянный

Битрейт : 224 Кбит/сек

Каналы : 2 канала

Расположение каналов : Front: L R

Частота : 48,0 КГц

Частота кадров : 31,250 кадров/сек (1536 spf)

Метод сжатия : С потерями

Размер потока : 147 Мбайт (6%)

Заголовок : VO

Язык : Russian

Default : Нет

Forced : Нет



Аудио #2

Идентификатор : 3

Формат : AC-3

Формат/Информация : Audio Coding 3

Расширение режима : CM (complete main)

Параметр Endianness формата : Big

Идентификатор кодека : A_AC3

Продолжительность : 1 ч. 31 м.

Вид битрейта : Постоянный

Битрейт : 224 Кбит/сек

Каналы : 2 канала

Расположение каналов : Front: L R

Частота : 48,0 КГц

Частота кадров : 31,250 кадров/сек (1536 spf)

Метод сжатия : С потерями

Размер потока : 147 Мбайт (6%)

Язык : English

Default : Нет

Forced : Нет



Меню

00:00:00.080 : en:Chapter 01

00:07:59.600 : en:Chapter 02

00:15:05.480 : en:Chapter 03

00:21:01.880 : en:Chapter 04

00:28:27.080 : en:Chapter 05

00:36:32.120 : en:Chapter 06

00:43:25.400 : en:Chapter 07

00:52:33.800 : en:Chapter 08

01:01:30.560 : en:Chapter 09

01:09:50.360 : en:Chapter 10

01:17:57.440 : en:Chapter 11

01:25:33.200 : en:Chapter 12





Discussion

Comments 0

Post Your Comment

Torrent Files (Unavailable)

Please check back later to get a list of all files included in this torrent.

Alternative Torrents for 'Изумрудный город Emerald City DVDRip'.

TORRENT NAMEADDEDSIZESEEDSPEERSHEALTH
12/2/20192.3 GB00