C'era Una Volta A Hollywood - Once Upon A Time In Hollywood (2019) 720p H264 Ita Eng Sub Ita Eng-MIRCrew

Torrent Details


C'era una volta a Hollywood - Once Upon a Time in    Hollywood (2019) 720p H264 ita eng sub ita eng<span style=color:#fc9c6d>-MIRCrew</span>

NAME
C'era una volta a Hollywood - Once Upon a Time in Hollywood (2019) 720p H264 ita eng sub ita eng-MIRCrew.torrent
CATEGORY
Movies
INFOHASH
2266cff8c7622f581c6a0d21d10f025669827520
SIZE
3.1 GB in 4 files
ADDED
Uploaded on 07-12-2019 by our crawler pet called "Spidey".
SWARM
0 seeders & 0 peers
RATING
No votes yet.

Please login to vote for this torrent.


Description

Once Upon a Time in... Hollywood - C'era una volta a Hollywood (2019).720p.H264.ita.eng.Ac3-5.1.sub.ita.eng-MIRCrew


NO FOUND ONLY ORIGINAL RELEASE

My release is always in double track audio italian and Original audio
for select it use VLC or dvd player home
not use wmp

C'era una volta a Hollywood - Once Upon a Time in... Hollywood (2019)

Quality MIRCrew on HD 720p da 3,0 gb









Titolo originaleOnce Upon a Time in... Hollywood
Lingua originaleinglese
Paese di produzioneStati Uniti d'America, Regno Unito
Anno2019
Durata161 min. (versione originale)
Dati tecniciB/N e a colori
rapporto: 2,39:1
Generecommedia, drammatico, thriller
RegiaQuentin Tarantino
SoggettoQuentin Tarantino
SceneggiaturaQuentin Tarantino



Leonardo DiCaprio: Rick Dalton
Brad Pitt: Cliff Booth
Margot Robbie: Sharon Tate
Emile Hirsch: Jay Sebring
Margaret Qualley: Pussycat
Timothy Olyphant: James Stacy
Julia Butters: Trudi Fraser
Austin Butler: Charles "Tex" Watson
Dakota Fanning: Lynette "Squeaky" Fromme
Bruce Dern: George Spahn
Mike Moh: Bruce Lee
Luke Perry: Wayne Maunder
Damian Lewis: Steve McQueen
Al Pacino: Marvin Schwarzs
Nicholas Hammond: Sam Wanamaker
Samantha Robinson: Abigail Folger
Rafał Zawierucha: Roman Polański
Lorenza Izzo: Francesca Capucci
Costa Ronin: Wojciech Frykowski
Damon Herriman: Charles Manson
Lena Dunham: Catherine "Gypsy" Share
Madisen Beaty: Patricia "Katie" Krenwinkel
Mikey Madison: Susan "Sadie" Atkins
James Landry Hébert: Steve "Clem" Grogan
Maya Hawke: Linda Kasabian
Victoria Pedretti: Leslie "Lulu" Van Houten
Scoot McNairy: "Business" Bob Gilbert
Clifton Collins Jr.: Ernesto il messicano
Dreama Walker: Connie Stevens
Rachel Redleaf: Cass Elliot
Rebecca Rittenhouse: Michelle Phillips
Rumer Willis: Joanna Pettet
Spencer Garrett: Allen Kincade
Clu Gulager: proprietario della "Larry Edmunds Bookshop"
Rebecca Gayheart: Billie Booth
Kurt Russell: Randy / narratore
Zoë Bell: Janet
Michael Madsen: sceriffo Hackett
Perla Haney-Jardine: venditrice di sigarette



Alla fine degli anni cinquanta, l'attore Rick Dalton è protagonista della popolare serie televisiva western Bounty Law e sembra pronto a compiere il "grande salto" da volto televisivo a star del cinema. Nel febbraio del 1969, tuttavia, la sua carriera non è decollata come previsto e, mentre a Hollywood sta emergendo un nuovo tipo di cinema e con esso un tipo d'attore diverso dal suo



A faded television actor and his stunt double strive to achieve fame and success in the film industry during the final years of Hollywood's Golden Age in 1969 Los Angeles.









General
Unique ID : 211794833617827614249685292902416168922 (0x9F563382B3C939759EE2D875D6A0B7DA)
Complete name : C'era una volta a Hollywood - Once Upon a Time in... Hollywood (2019).720p.H264.ita.eng.sub.ita.eng-MIRCrewC'era una volta a Hollywood - Once Upon a Time in... Hollywood (2019).720p.H264.ita.eng.sub.ita.eng-MIRCrew.mkv
Format : Matroska
Format version : Version 2
File size : 3.08 GiB
Duration : 2h 41mn
Overall bit rate : 2 727 Kbps
Movie name : robbyrs
Encoded date : UTC 2019-12-06T19:15:08Z
Writing application : mkvmerge v5.8.0 ('No Sleep / Pillow') built on Sep 2 2012 15:37:04
Writing library : Lavf55.12.0

Video
ID : 1
Format : AVC
Format/Info : Advanced Video Codec
Format profile : [email protected]
Format settings, CABAC : Yes
Format settings, ReFrames : 4 frames
Codec ID : V_MPEG4/ISO/AVC
Duration : 2h 41mn
Bit rate : 1 900 Kbps
Width : 1 280 pixels
Height : 528 pixels
Display aspect ratio : 2.40:1
Frame rate : 23.976 fps
Color space : YUV
Chroma subsampling : 4:2:0
Bit depth : 8 bits
Scan type : Progressive
Bits/(Pixel*Frame) : 0.117
Stream size : 2.08 GiB (68%)
Title : robbyrs
Writing library : x264 core 142 r2479 dd79a61
Encoding settings : cabac=1 / ref=1 / deblock=1:0:0 / analyse=0x1:0x111 / me=hex / subme=2 / psy=1 / psy_rd=1.00:0.00 / mixed_ref=0 / me_range=16 / chroma_me=1 / trellis=0 / 8x8dct=0 / cqm=0 / deadzone=21,11 / fast_pskip=1 / chroma_qp_offset=0 / threads=9 / lookahead_threads=3 / sliced_threads=0 / nr=0 / decimate=1 / interlaced=0 / bluray_compat=0 / constrained_intra=0 / bframes=3 / b_pyramid=2 / b_adapt=1 / b_bias=0 / direct=1 / weightb=1 / open_gop=0 / weightp=1 / keyint=240 / keyint_min=24 / scenecut=40 / intra_refresh=0 / rc_lookahead=10 / rc=abr / mbtree=1 / bitrate=1900 / ratetol=1.0 / qcomp=0.60 / qpmin=0 / qpmax=69 / qpstep=4 / vbv_maxrate=50000 / vbv_bufsize=62500 / nal_hrd=none / filler=0 / ip_ratio=1.40 / aq=1:1.00
Language : Italian
Default : Yes
Forced : No
Color primaries : BT.709-5, BT.1361, IEC 61966-2-4, SMPTE RP177
Transfer characteristics : BT.709-5, BT.1361
Matrix coefficients : BT.709-5, BT.1361, IEC 61966-2-4 709, SMPTE RP177

Audio #1
ID : 2
Format : AC-3
Format/Info : Audio Coding 3
Mode extension : CM (complete main)
Codec ID : A_AC3
Duration : 2h 41mn
Bit rate mode : Constant
Bit rate : 448 Kbps
Channel(s) : 6 channels
Channel positions : Front: L C R, Side: L R, LFE
Sampling rate : 48.0 KHz
Bit depth : 16 bits
Compression mode : Lossy
Delay relative to video : -5ms
Stream size : 517 MiB (16%)
Title : Ita Ac3 5.1
Language : Italian
Default : Yes
Forced : No

Audio #2
ID : 3
Format : AC-3
Format/Info : Audio Coding 3
Mode extension : CM (complete main)
Codec ID : A_AC3
Duration : 2h 41mn
Bit rate mode : Constant
Bit rate : 384 Kbps
Channel(s) : 6 channels
Channel positions : Front: L C R, Side: L R, LFE
Sampling rate : 48.0 KHz
Bit depth : 16 bits
Compression mode : Lossy
Delay relative to video : -5ms
Stream size : 444 MiB (14%)
Title : Eng Ac3 5.1
Language : English
Default : No
Forced : No

Menu
00:00:00.000 : :Chapter 1
00:04:49.497 : :Chapter 2
00:13:45.282 : :Chapter 3
00:18:29.274 : :Chapter 4
00:22:00.402 : :Chapter 5
00:25:59.432 : :Chapter 6
00:28:41.177 : :Chapter 7
00:33:45.356 : :Chapter 8
00:40:19.458 : :Chapter 9
00:49:59.580 : :Chapter 10
00:51:48.814 : :Chapter 11
00:59:52.380 : :Chapter 12
01:02:32.957 : :Chapter 13
01:04:28.739 : :Chapter 14
01:09:16.861 : :Chapter 15
01:17:40.864 : :Chapter 16
01:20:25.862 : :Chapter 17
01:26:28.516 : :Chapter 18
01:32:54.569 : :Chapter 19
01:39:58.617 : :Chapter 20
01:47:55.343 : :Chapter 21
01:53:00.357 : :Chapter 22
01:58:09.666 : :Chapter 23
02:06:24.076 : :Chapter 24
02:11:23.041 : :Chapter 25
02:15:50.183 : :Chapter 26
02:21:30.273 : :Chapter 27
02:29:50.856 : :Chapter 28
02:36:28.420 : :Chapter 29
02:38:51.313 : :Chapter 30

Discussion

Comments 0

Post Your Comment

Files in this torrent

FILENAMESIZE
C'era una volta a Hollywood - Once Upon a Time in... Hollywood (2019).720p.H264.ita.eng.sub.ita.eng-MIRCrew.eng.srt152.9 KB
C'era una volta a Hollywood - Once Upon a Time in... Hollywood (2019).720p.H264.ita.eng.sub.ita.eng-MIRCrew.ita.srt121.2 KB
C'era una volta a Hollywood - Once Upon a Time in... Hollywood (2019).720p.H264.ita.eng.sub.ita.eng-MIRCrew.mkv3.1 GB
C'era una volta a Hollywood - Once Upon a Time in... Hollywood (2019).720p.H264.ita.eng.sub.ita.eng-MIRCrew.srt482 B

Alternative Torrents for 'C&;era una volta Hollywood Once Upon Time Hollywood eng sub eng'.

TORRENT NAMEADDEDSIZESEEDSPEERSHEALTH
4/11/20203.6 GB00
12/7/20193.1 GB00