Hot Shots Part Deux 1993 720p BluRay H264 AAC-RARBG (REMUX)

Torrent Details

Hot Shots Part Deux 1993 720p BluRay H264 AAC-RARBG (REMUX)

NAME
Hot Shots Part Deux 1993 720p BluRay H264 AAC-RARBG (REMUX).torrent
CATEGORY
Movies
INFOHASH
f6ec8afae031941496670ad9464cdc17ef0d5dbd
SIZE
1.2 GB in 3 files
ADDED
Uploaded on 17-12-2019 by our crawler pet called "Spidey".
SWARM
0 seeders & 0 peers
RATING
No votes yet.

Please login to vote for this torrent.


Description

Audio for the film comes in 4.0 surround. When processing that audio, it puts the center channel in the wrong spot and people have issues with playback. I have reworked it to 5.1 surround (2nd track on file) by placing the one rear surround channel in two rear surround channels and in the subwoofer channel. Included 2.0 (1st track on file) also. I used DVD audio to limit over processing and synced to RARBG video encode, which is why it is still tagged as RARBG. I hope this works for you.
 

 

Hot.Shots.Part.Deux.1993.720p.BluRay.H264-RARBG (REMUX).mp4
Format                                   : MPEG-4
Codec ID                                 : M4V
File size                                : 1.21 GiB
Duration                                 : 1h 28mn
Overall bit rate mode                    : Variable
Overall bit rate                         : 1 950 Kbps
Encoded date                             : UTC 2019-05-21 22:56:39
Tagged date                              : UTC 2019-05-21 22:56:39

Video
ID                                       : 1
Format                                   : AVC
Format/Info                              : Advanced Video Codec
Format profile                           : [email protected]
Format settings, CABAC                   : Yes
Format settings, ReFrames                : 4 frames
Codec ID                                 : avc1
Codec ID/Info                            : Advanced Video Coding
Duration                                 : 1h 28mn
Bit rate                                 : 1 500 Kbps
Maximum bit rate                         : 8 816 Kbps
Width                                    : 1 280 pixels
Height                                   : 694 pixels
Display aspect ratio                     : 1.85:1
Frame rate mode                          : Constant
Frame rate                               : 23.976 fps
Color space                              : YUV
Chroma subsampling                       : 4:2:0
Bit depth                                : 8 bits
Scan type                                : Progressive
Bits/(Pixel*Frame)                       : 0.070
Stream size                              : 949 MiB (77%)
Title                                    : v.h264
Writing library                          : x264 core 152 r2851M ba24899
Encoding settings                        : cabac=1 / ref=4 / deblock=1:-1:-1 / analyse=0x3:0x113 / me=umh / subme=9 / psy=1 / psy_rd=1.00:0.15 / mixed_ref=1 / me_range=24 / chroma_me=1 / trellis=2 / 8x8dct=1 / cqm=0 / deadzone=21,11 / fast_pskip=1 / chroma_qp_offset=-3 / threads=32 / lookahead_threads=4 / sliced_threads=0 / nr=0 / decimate=1 / interlaced=0 / bluray_compat=0 / constrained_intra=0 / bframes=3 / b_pyramid=2 / b_adapt=2 / b_bias=0 / direct=3 / weightb=1 / open_gop=0 / weightp=2 / keyint=250 / keyint_min=25 / scenecut=40 / intra_refresh=0 / rc_lookahead=50 / rc=2pass / mbtree=1 / bitrate=1500 / ratetol=1.0 / qcomp=0.60 / qpmin=0 / qpmax=69 / qpstep=4 / cplxblur=20.0 / qblur=0.5 / vbv_maxrate=31250 / vbv_bufsize=31250 / nal_hrd=none / filler=0 / ip_ratio=1.40 / aq=3:1.00
Language                                 : English
Encoded date                             : UTC 2019-05-21 22:56:39
Tagged date                              : UTC 2019-05-21 22:58:10

Audio #1
ID                                       : 2
Format                                   : AAC
Format/Info                              : Advanced Audio Codec
Format profile                           : LC
Codec ID                                 : 40
Duration                                 : 1h 28mn
Bit rate mode                            : Variable
Bit rate                                 : 128 Kbps
Maximum bit rate                         : 134 Kbps
Channel count                            : 2 channels
Channel positions                        : Front: L R
Sampling rate                            : 48.0 KHz
Compression mode                         : Lossy
Stream size                              : 81.1 MiB (7%)
Title                                    : aac.mp4
Language                                 : English
Encoded date                             : UTC 2019-05-21 22:57:33
Tagged date                              : UTC 2019-05-21 22:58:10

Audio #2
ID                                       : 3
Format                                   : AC-3
Format/Info                              : Audio Coding 3
Mode extension                           : CM (complete main)
Format settings, Endianness              : Big
Codec ID                                 : ac-3
Duration                                 : 1h 28mn
Bit rate mode                            : Constant
Bit rate                                 : 320 Kbps
Channel count                            : 6 channels
Channel positions                        : Front: L C R, Side: L R, LFE
Sampling rate                            : 48.0 KHz
Bit depth                                : 16 bits
Compression mode                         : Lossy
Stream size                              : 203 MiB (16%)
Title                                    : 5.1.ac3
Language                                 : English
Encoded date                             : UTC 2019-05-21 22:57:37
Tagged date                              : UTC 2019-05-21 22:58:10









Related Torrents







Sharing Widget
To share this torrent inserting the provided BBCode into comments, status messages, forum posts or your signature.


Torrent:
Hot Shots Part Deux 1993 720p BluRay H264-katcr (REMUX)


BBCode

Discussion

Comments 0

Post Your Comment

Files in this torrent

FILENAMESIZE
Hot.Shots.Part.Deux.1993.720p.BluRay.H264-RARBG (REMUX).mp41.2 GB
Subs/2_Eng.srt59.8 KB
Subs/3_Eng.srt56.5 KB

Alternative Torrents for 'Hot Shots Part Deux BluRay AACRARBG REMUX'.

TORRENT NAMEADDEDSIZESEEDSPEERSHEALTH
9/14/20201.8 GB1752325
9/14/2020888 MB1377136
9/20/2020895 MB1252425
9/20/20201.8 GB1113318
9/20/20201.6 GB922211
9/18/2020782 MB911248
9/16/2020901 MB69252
9/11/20201.8 GB500222
9/21/20202.2 GB323162
9/17/2020952 MB32236
Yesterday1000 MB315296
Yesterday2 GB308230
9/20/20201.6 GB29211
9/21/20203.3 GB284196
9/15/2020752 MB28155