C Era Una Volta A Hollywood 2019 ITA DTS ENG AC3 1080p BluRay X264-Speranzah

Torrent Details


C Era Una Volta A Hollywood 2019 ITA DTS ENG AC3 1080p BluRay x264-Speranzah

NAME
C Era Una Volta A Hollywood 2019 ITA DTS ENG AC3 1080p BluRay x264-Speranzah.torrent
CATEGORY
Movies
INFOHASH
77bbd357fcf38714e3af261933ce4a2e01384e34
SIZE
10.4 GB in 1 file
ADDED
Uploaded on 19-12-2019 by our crawler pet called "Spidey".
SWARM
0 seeders & 0 peers
RATING
No votes yet.

Please login to vote for this torrent.


Description



BLURAY 1080p











Nazione : Gran Bretagna, USA

Anno: 2019

Genere: Commedia, Drammatico

Durata: 145 min.

Regia:   Quentin Tarantino

Cast: Leonardo DiCaprio, Brad Pitt, Margot Robbie, Al Pacino, Timothy Olyphant, Emile Hirsch, Zoe Bell, 

Dakota Fanning, Kurt Russell, Damian Lewis, Michael Madsen, Luke Perry, Julia Butters, Clifton Collins Jr., Scoot McNairy, 

Nicholas Hammond, Maurice Compte, Damon Herriman, Lew Temple, Margaret Qualley, Spencer Garrett, Austin Butler, Mike Moh, Rafal Zawierucha, Lena Dunham



_-Trama-_



C'era una volta a... Hollywood, il nono film diretto da Quentin Tarantino, è ambinatato nella Los Angeles del 1969, e nel mondo del cinema in particolare. Protagonista è Rick Dalton (Leonardo DiCaprio), un attore con alle spalle il successo arrivato grazie a una serie televisiva western degli anni Cinquanta e una serie di film azzeccati, ma che ora teme che la sua carriera possa essere arrivata al capolinea. Ciò nonostante è restio ad accettare l'offerta di un produttore di recitare in uno spaghetti western in Europa, ritenendo il progetto non alla sua altezza. Invece, Dalton accetterà la parte del villain in una nuova serie tv western. Al suo fianco c'è sempre Cliff Booth (Brad Pitt), che è qualcosa di più del suo stuntman: è anche un autista, e un assistente factotum, e in fondo anche il suo unico vero amico. Anche Cliff fa fatica a trovare nuovi lavori, dopo che si è diffusa la voce che sia stato lui a uccidere sua moglie. Cliff abita in un roulotte assieme al suo pibull, ma passa buona parte del suo tempo a casa di Rick, che si trova in Cielo Drive, sulle colline di Bel-Air: una villa che si trova proprio al fianco di quella da poco presa in affitto dal regista Roman Polanski e da sua moglie, la bellissima attrice Sharon Tate (Margot Robbie).

Le vicende di Rick e Cliff e quelle di Sharon Tate procederanno in parallelo, fino a quando si incroceranno in maniera inaspettata proprio in una data fatidica.









 







C.Era.Una.Volta.A.Hollywood.2019.ITA.DTS.ENG.AC3.1080p.BluRay.x264-Speranzah.mkv

Format                                   : Matroska

Format version                           : Version 4 / Version 2

File size                                : 10.4 GiB

Duration                                 : 2h 41mn

Overall bit rate                         : 9 213 Kbps

Encoded date                             : UTC 2019-12-19 17:31:18

Writing application                      : mkvmerge v7.6.0 ('Garden of Dreams') 64bit built on Feb  8 2015 15:12:28

Writing library                          : libebml v1.3.1 + libmatroska v1.4.2

_STATISTICS_WRITING_APP                  : mkvmerge v7.6.0 ('Garden of Dreams') 64bit built on Feb  8 2015 15:12:28

_STATISTICS_WRITING_DATE_UTC             : 2019-12-19 17:31:18

_STATISTICS_TAGS                         : BPS DURATION NUMBER_OF_FRAMES NUMBER_OF_BYTES

DURATION                                 : 02:39:41.706000000

NUMBER_OF_FRAMES                         : 2160

NUMBER_OF_BYTES                          : 68570



Video

ID                                       : 1

Format                                   : AVC

Format/Info                              : Advanced Video Codec

Format profile                           : [email protected]

Format settings, CABAC                   : Yes

Format settings, ReFrames                : 3 frames

Codec ID                                 : V_MPEG4/ISO/AVC

Duration                                 : 2h 41mn

Bit rate                                 : 6 880 Kbps

Nominal bit rate                         : 9 944 Kbps

Width                                    : 1 920 pixels

Height                                   : 800 pixels

Display aspect ratio                     : 2.40:1

Frame rate                               : 23.976 fps

Color space                              : YUV

Chroma subsampling                       : 4:2:0

Bit depth                                : 8 bits

Scan type                                : Progressive

Bits/(Pixel*Frame)                       : 0.187

Stream size                              : 7.77 GiB (75%)

Title                                    : C.Era.Una.Volta.Hollywood.2019.1080p.BluRay.x264-C78

Writing library                          : x264 core 148

Encoding settings                        : cabac=1 / ref=3 / deblock=1:-1:-1 / analyse=0x3:0 / me=hex / subme=5 / psy=1 / psy_rd=1.00:0.00 / mixed_ref=0 / me_range=16 / chroma_me=1 / trellis=1 / 8x8dct=1 / cqm=0 / deadzone=21,11 / fast_pskip=0 / chroma_qp_offset=0 / threads=16 / lookahead_threads=4 / sliced_threads=0 / nr=0 / decimate=1 / interlaced=0 / bluray_compat=0 / constrained_intra=0 / bframes=2 / b_pyramid=0 / b_adapt=1 / b_bias=0 / direct=1 / weightb=0 / open_gop=0 / weightp=0 / keyint=24 / keyint_min=2 / scenecut=40 / intra_refresh=0 / rc=2pass / mbtree=0 / bitrate=9944 / ratetol=1.0 / qcomp=0.60 / qpmin=0 / qpmax=69 / qpstep=4 / cplxblur=20.0 / qblur=0.5 / ip_ratio=1.40 / pb_ratio=1.30 / aq=1:1.00

Default                                  : Yes

Forced                                   : No

Color primaries                          : BT.709-5, BT.1361, IEC 61966-2-4, SMPTE RP177

Transfer characteristics                 : BT.709-5, BT.1361

Matrix coefficients                      : BT.709-5, BT.1361, IEC 61966-2-4 709, SMPTE RP177



Audio #1

ID                                       : 2

Format                                   : DTS

Format/Info                              : Digital Theater Systems

Codec ID                                 : A_DTS

Duration                                 : 2h 41mn

Bit rate mode                            : Constant

Bit rate                                 : 1 510 Kbps

Channel(s)                               : 6 channels

Channel positions                        : Front: L C R, Side: L R, LFE

Sampling rate                            : 48.0 KHz

Bit depth                                : 24 bits

Compression mode                         : Lossy

Stream size                              : 1.71 GiB (16%)

Title                                    : DTS ITA

Language                                 : Italian

Default                                  : Yes

Forced                                   : Yes



Audio #2

ID                                       : 3

Format                                   : AC-3

Format/Info                              : Audio Coding 3

Mode extension                           : CM (complete main)

Codec ID                                 : A_AC3

Duration                                 : 2h 41mn

Bit rate mode                            : Constant

Bit rate                                 : 640 Kbps

Channel(s)                               : 6 channels

Channel positions                        : Front: L C R, Side: L R, LFE

Sampling rate                            : 48.0 KHz

Bit depth                                : 16 bits

Compression mode                         : Lossy

Stream size                              : 740 MiB (7%)

Title                                    : AC3 ENG

Language                                 : English

Default                                  : No

Forced                                   : No



Text #1

ID                                       : 4

Format                                   : UTF-8

Codec ID                                 : S_TEXT/UTF8

Codec ID/Info                            : UTF-8 Plain Text

Title                                    : Forced

Language                                 : Italian

Default                                  : Yes

Forced                                   : Yes



Text #2

ID                                       : 5

Format                                   : UTF-8

Codec ID                                 : S_TEXT/UTF8

Codec ID/Info                            : UTF-8 Plain Text

Language                                 : Italian

Default                                  : No

Forced                                   : No



Text #3

ID                                       : 6

Format                                   : UTF-8

Codec ID                                 : S_TEXT/UTF8

Codec ID/Info                            : UTF-8 Plain Text

Language                                 : English

Default                                  : No

Forced                                   : No



Menu

00:00:00.000                             : en:(01)00:00:00:000

00:04:49.414                             : en:(02)00:04:49:414

00:13:45.199                             : en:(03)00:13:45:199

00:18:29.149                             : en:(04)00:18:29:149

00:22:00.319                             : en:(05)00:22:00:319

00:25:59.349                             : en:(06)00:25:59:349

00:28:41.094                             : en:(07)00:28:41:094

00:33:45.106                             : en:(08)00:33:45:106

00:40:19.333                             : en:(09)00:40:19:333

00:49:59.454                             : en:(10)00:49:59:454

00:51:48.688                             : en:(11)00:51:48:688

00:59:52.255                             : en:(12)00:59:52:255

01:02:32.874                             : en:(13)01:02:32:874

01:04:28.614                             : en:(14)01:04:28:614

01:09:16.735                             : en:(15)01:09:16:735

01:17:40.781                             : en:(16)01:17:40:781

01:20:25.779                             : en:(17)01:20:25:779

01:26:28.433                             : en:(18)01:26:28:433

01:32:54.443                             : en:(19)01:32:54:443

01:39:58.492                             : en:(20)01:39:58:492

01:47:55.218                             : en:(21)01:47:55:218

01:53:00.231                             : en:(22)01:53:00:231

01:58:09.540                             : en:(23)01:58:09:540

02:06:23.993                             : en:(24)02:06:23:993

02:11:22.958                             : en:(25)02:11:22:958

02:15:50.100                             : en:(26)02:15:50:100

02:21:30.190                             : en:(27)02:21:30:190

02:29:50.731                             : en:(28)02:29:50:731

02:36:28.253                             : en:(29)02:36:28:253

02:38:51.230                             : en:(30)02:38:51:230















DDN

Discussion

Comments 0

Post Your Comment

Files in this torrent

FILENAMESIZE
C.Era.Una.Volta.A.Hollywood.2019.ITA.DTS.ENG.AC3.1080p.BluRay.x264-Speranzah.mkv10.4 GB

Alternative Torrents for 'Era Una Volta Hollywood DTS ENG BluRay Speranzah'.

TORRENT NAMEADDEDSIZESEEDSPEERSHEALTH
12/19/201910.4 GB00