Coldplay - Everyday Life (Explicit) (2019) [96hz - 24bit]

Torrent Details


Coldplay - Everyday Life (Explicit) (2019) [96hz - 24bit]

NAME
Coldplay - Everyday Life (Explicit) (2019) [96hz - 24bit].torrent
CATEGORY
Music
INFOHASH
2f015a241e8d9c1e777815c24f17a84740ba2714
SIZE
1 GB in 18 files
ADDED
Uploaded on 23-12-2019 by our crawler pet called "Spidey".
SWARM
0 seeders & 0 peers
RATING
No votes yet.

Please login to vote for this torrent.


Description





Quality-Lossless

Release-2019

Duration-00:52:49

File Size-1.10 GB

Genre-Alternative

Cover Size-1400px



----------------------------------------------------------------------------------------------

Analyzed: Everyday Life (Explicit) /  Artist: Coldplay

----------------------------------------------------------------------------------------------

DR Peak RMS Duration Title [codec]

----------------------------------------------------------------------------------------------

DR12 -0.11 dB -17.44 dB 2:31 01 - Sunrise [flac]

DR5 -0.00 dB -6.71 dB 3:50 02 - Church [flac]

DR4 -0.02 dB -7.98 dB 4:37 03 - Trouble In Town [flac]

DR10 -0.05 dB -14.42 dB 2:29 04 - BrokEn [flac]

DR7 -0.00 dB -11.32 dB 4:58 05 - Daddy [flac]

DR12 -0.02 dB -15.70 dB 1:15 06 - WOTW / POTP [flac]

DR3 -0.00 dB -6.16 dB 5:40 07 - Arabesque [flac]

DR7 -0.06 dB -13.78 dB 2:35 08 - When I Need A Friend [flac]

DR7 -0.03 dB -8.60 dB 1:55 09 - Guns [flac]

DR4 -0.01 dB -5.96 dB 3:16 10 - Orphans [flac]

DR6 -0.08 dB -7.65 dB 2:37 11 - Èkó [flac]

DR6 -0.08 dB -7.79 dB 2:46 12 - Cry Cry Cry [flac]

DR10 -0.01 dB -13.94 dB 2:25 13 - Old Friends [flac]

DR7 -0.06 dB -11.57 dB 3:14 14 - بنی آدم [flac]

DR4 -0.00 dB -7.22 dB 4:16 15 - Champion Of The World [flac]

DR5 -0.06 dB -10.57 dB 4:17 16 - Everyday Life [flac]

----------------------------------------------------------------------------------------------

Number of files:    16

Official DR value:  DR7



Sampling rate: 96000 Hz

Average bitrate: 2756kbs

Bits per sample: 24 bit

Discussion

Comments 0

Post Your Comment

Files in this torrent

FILENAMESIZE
01 - Sunrise.flac48.5 MB
02 - Church.flac81.8 MB
03 - Trouble In Town.flac84.7 MB
04 - BrokEn.flac48.7 MB
05 - Daddy.flac80.8 MB
06 - WOTW - POTP.flac23.8 MB
07 - Arabesque.flac120 MB
08 - When I Need A Friend.flac50.3 MB
09 - Guns.flac41.3 MB
10 - Orphans.flac72.2 MB
11 - Èkó.flac54.3 MB
12 - Cry Cry Cry.flac53.9 MB
13 - Old Friends.flac44.6 MB
15 - Champion Of The World.flac90 MB
16 - Everyday Life.flac84.9 MB
art.jpg2.7 MB
cover.jpg563.3 KB
dr14.txt1.6 KB

Alternative Torrents for 'Coldplay Everyday Life Explicit hz bit'.

There are no alternative torrents found.