Harry Potter And The Deathly Hallows- Part 2 Theatrical

Torrent Details

Harry Potter and the Deathly Hallows- Part 2 theatrical

NAME
Harry Potter and the Deathly Hallows- Part 2 theatrical.torrent
CATEGORY
Movies
INFOHASH
103a993bab3a43f9c6855ba61b382ebe0688e74f
SIZE
2.1 GB in 1 file
ADDED
Uploaded on 17-01-2020 by our crawler pet called "Spidey".
SWARM
0 seeders & 0 peers
RATING
No votes yet.

Please login to vote for this torrent.


Description

Seedbox!







Harry Potter and the Deathly Hallows: Part 2 (2011)

1080p Blu-Ray Rip

Hash Code:

103A993BAB3A43F9C6855BA61B382EBE0688E74F

























Tap on image for IMDb Info for this film



General

Complete name                            : HARRY_POTTER_AND_THE_DEATHLY_HALLOWS_PART_1.theatrical.mp4

Format                                   : MPEG-4

Format profile                           : Base Media / Version 2

Codec ID                                 : mp42 (mp42/isom/avc1)

File size                                : 2.32 GiB

Duration                                 : 2 h 26 min

Overall bit rate mode                    : Variable

Overall bit rate                         : 2 271 kb/s

Movie name                               : Harry Potter and the Deathly Hallows: Part 1

Performer                                : David Yates

Performer/Sorted by                      : David Yates

Genre                                    : Adventure & Fantasy

Description                              : Harry, Ron and Hermione walk away from their last year at Hogwarts to find and destroy the remaining Horcruxes, putting an end to Voldemort's bid for immortality. But with Harry's beloved Dumbledore dead and Voldemort's unscrupulous Death Eaters on the loose, the world is more dangerous than ever.

Recorded date                            : 2020

Encoded date                             : UTC 2020-01-14 22:35:33

Tagged date                              : UTC 2020-01-14 23:27:51

Writing application                      : DVDFab 11.0.6.6

Cover                                    : Yes

Title/Sort                               : Harry Potter and the Deathly Hallows: Part 1

LongDescription                          : Harry, Ron and Hermione walk away from their last year at Hogwarts to find and destroy the remaining Horcruxes, putting an end to Voldemort's bid for immortality. But with Harry's beloved Dumbledore dead and Voldemort's unscrupulous Death Eaters on the loose, the world is more dangerous than ever.



Video

ID                                       : 1

Format                                   : AVC

Format/Info                              : Advanced Video Codec

Format profile                           : [email protected]

Format settings                          : CABAC / 2 Ref Frames

Format settings, CABAC                   : Yes

Format settings, RefFrames               : 2 frames

Format settings, GOP                     : M=1, N=24

Codec ID                                 : avc1

Codec ID/Info                            : Advanced Video Coding

Duration                                 : 2 h 26 min

Bit rate mode                            : Variable

Bit rate                                 : 1 812 kb/s

Maximum bit rate                         : 2 763 kb/s

Width                                    : 1 920 pixels

Height                                   : 800 pixels

Display aspect ratio                     : 2.40:1

Frame rate mode                          : Constant

Frame rate                               : 23.976 (24000/1001) FPS

Color space                              : YUV

Chroma subsampling                       : 4:2:0

Bit depth                                : 8 bits

Scan type                                : Progressive

Bits/(Pixel*Frame)                       : 0.049

Stream size                              : 1.85 GiB (80%)

Encoded date                             : UTC 2020-01-14 22:35:33

Tagged date                              : UTC 2020-01-14 23:27:51

Color primaries                          : BT.709

Transfer characteristics                 : BT.709

Matrix coefficients                      : BT.709

Menus                                    : 4



Audio

ID                                       : 2

Format                                   : AAC

Format/Info                              : Advanced Audio Codec

Format profile                           : LC

Codec ID                                 : mp4a-40-2

Duration                                 : 2 h 26 min

Bit rate mode                            : Variable

Bit rate                                 : 448 kb/s

Maximum bit rate                         : 455 kb/s

Channel(s)                               : 6 channels

Channel positions                        : Front: L C R, Side: L R, LFE

Sampling rate                            : 48.0 kHz

Frame rate                               : 46.875 FPS (1024 SPF)

Compression mode                         : Lossy

Stream size                              : 468 MiB (20%)

Title                                    : English (aac 5.1)

Language                                 : English

Default                                  : Yes

Alternate group                          : 1

Encoded date                             : UTC 2020-01-14 22:35:33

Tagged date                              : UTC 2020-01-14 23:27:51



Text

ID                                       : 3

Format                                   : VobSub

Codec ID                                 : mp4s-E0

Codec ID/Info                            : The same subtitle format used on DVDs

Duration                                 : 2 h 26 min

Bit rate mode                            : Variable

Bit rate                                 : 7 747 b/s

Maximum bit rate                         : 4 249 Mb/s

Stream size                              : 8.09 MiB (0%)

Language                                 : English

Default                                  : Yes

Forced                                   : No

Alternate group                          : 2

Encoded date                             : UTC 2020-01-14 22:35:33

Tagged date                              : UTC 2020-01-14 23:27:50



B)

Discussion

Comments 0

Post Your Comment

Files in this torrent

FILENAMESIZE
Harry Potter and the Deathly Hallows- Part 2.theatrical.mp42.1 GB

Alternative Torrents for 'Harry Potter and Deathly Hallows Part theatrical'.

TORRENT NAMEADDEDSIZESEEDSPEERSHEALTH
1/17/20202.1 GB00
1/16/20202.3 GB00