Eminem - Music To Be Murdered By (2020) [24bit Hi-Res]

Torrent Details


Eminem - Music To Be Murdered By (2020) [24bit Hi-Res]

NAME
Eminem - Music To Be Murdered By (2020) [24bit Hi-Res].torrent
CATEGORY
Music
INFOHASH
3c619d13ac676b5dbb3170f5aeb83f212dc82a34
SIZE
748 MB in 22 files
ADDED
Uploaded on 23-01-2020 by our crawler pet called "Spidey".
SWARM
0 seeders & 0 peers
RATING
No votes yet.

Please login to vote for this torrent.


Description





Quality-Lossless

Release-2020

Duration-01:04:23

File Size-784 MB

Genre-Rap

Cover Size-1400px



----------------------------------------------------------------------------------------------

Analyzed: Music To Be Murdered By (Explicit) /  Artist: Eminem

----------------------------------------------------------------------------------------------

DR Peak RMS Duration Title [codec]

----------------------------------------------------------------------------------------------

DR5 -0.25 dB -6.76 dB 2:53 01 - Premonition (Intro) [flac]

DR4 -0.20 dB -5.44 dB 3:35 02 - Unaccommodating [flac]

DR5 -0.20 dB -6.67 dB 3:54 03 - You Gon’ Learn [flac]

DR14 -3.32 dB -23.05 dB 0:30 04 - Alfred (Interlude) [flac]

DR5 -0.20 dB -7.53 dB 2:56 05 - Those Kinda Nights [flac]

DR6 -0.20 dB -7.78 dB 3:14 06 - In Too Deep [flac]

DR6 -0.66 dB -8.10 dB 3:29 07 - Godzilla [flac]

DR5 -0.21 dB -7.93 dB 5:37 08 - Darkness [flac]

DR5 -0.54 dB -8.20 dB 4:25 09 - Leaving Heaven [flac]

DR5 -0.29 dB -5.98 dB 4:46 10 - Yah Yah [flac]

DR7 -2.56 dB -11.02 dB 0:15 11 - Stepdad (Intro) [flac]

DR6 -0.20 dB -6.96 dB 3:33 12 - Stepdad [flac]

DR5 -0.68 dB -6.51 dB 3:20 13 - Marsh [flac]

DR8 -0.20 dB -9.91 dB 2:56 14 - Never Love Again [flac]

DR5 -0.20 dB -7.14 dB 2:56 15 - Little Engine [flac]

DR5 -0.20 dB -6.33 dB 2:50 16 - Lock It Up [flac]

DR5 -0.20 dB -7.64 dB 4:07 17 - Farewell [flac]

DR4 -0.40 dB -4.99 dB 3:20 18 - No Regrets [flac]

DR6 -0.20 dB -6.72 dB 5:01 19 - I Will [flac]

DR3 -0.20 dB -18.66 dB 0:39 20 - Alfred (Outro) [flac]

----------------------------------------------------------------------------------------------

Number of files:    20

Official DR value:  DR6



Sampling rate: 44100 Hz

Average bitrate: 1604kbs

Bits per sample: 24 bit

Discussion

Comments 0

Post Your Comment

Files in this torrent

FILENAMESIZE
01 - Premonition (Intro).flac32.6 MB
02 - Unaccommodating.flac40.3 MB
03 - You Gon’ Learn.flac46.6 MB
04 - Alfred (Interlude).flac5.4 MB
05 - Those Kinda Nights.flac34.6 MB
06 - In Too Deep.flac38 MB
07 - Godzilla.flac40.3 MB
08 - Darkness.flac61.1 MB
09 - Leaving Heaven.flac52.2 MB
10 - Yah Yah.flac63.3 MB
11 - Stepdad (Intro).flac2.9 MB
12 - Stepdad.flac41.3 MB
13 - Marsh.flac37.6 MB
14 - Never Love Again.flac34 MB
15 - Little Engine.flac34.6 MB
16 - Lock It Up.flac33.8 MB
17 - Farewell.flac48.5 MB
18 - No Regrets.flac38.7 MB
19 - I Will.flac55.9 MB
20 - Alfred (Outro).flac6.5 MB
cover.jpg341.2 KB
dr14.txt1.9 KB

Alternative Torrents for 'Eminem Music To Be Murdered By bit HiRes'.

TORRENT NAMEADDEDSIZESEEDSPEERSHEALTH
1/5/202123.6 GB52660
12/28/20201 GB48812
12/27/2020797 MB46217
1/15/2021867 MB361230
1/10/20213.8 GB3446
1/9/2021141 MB34113
1/7/20218 MB3127
12/18/2020272 MB29522
12/25/2020798 MB280114
1/6/2021695 MB26811
1/9/202168 MB26341
12/20/20201.7 GB2574
12/29/2020256 MB25440
12/24/2020537 MB2423
12/19/2020815 MB22813