Harry Potter And The Prisoner Of Azkaban (2004) [1080p X265 HEVC 10bit BluRay AAC 7.1] [Prof]

Torrent Details


Harry Potter and the Prisoner of Azkaban (2004) [1080p x265 HEVC 10bit BluRay AAC 7.1] [Prof]

NAME
Harry Potter and the Prisoner of Azkaban (2004) [1080p x265 HEVC 10bit BluRay AAC 7.1] [Prof].torrent
CATEGORY
Movies
INFOHASH
e4e789b7cff3a794b143408eab17402ca735b8b7
SIZE
8.1 GB in 1 file
ADDED
Uploaded on 28-01-2020 by our crawler pet called "Spidey".
SWARM
0 seeders & 0 peers
RATING
No votes yet.

Please login to vote for this torrent.


Description













Format                                   : Matroska

Format version                           : Version 4

File size                                : 8.14 GiB

Duration                                 : 2 h 21 min

Overall bit rate                         : 8 223 kb/s

Movie name                               : Harry Potter and the Prisoner of Azkaban (2004)

Encoded date                             : UTC 2020-01-27 19:36:06

Writing application                      : mkvmerge v41.0.0 ('Smarra') 64-bit

Writing library                          : libebml v1.3.9 + libmatroska v1.5.2



Video

ID                                       : 1

Format                                   : HEVC

Format/Info                              : High Efficiency Video Coding

Format profile                           : Main [email protected]@Main

Codec ID                                 : V_MPEGH/ISO/HEVC

Duration                                 : 2 h 21 min

Bit rate                                 : 6 403 kb/s

Width                                    : 1 920 pixels

Height                                   : 800 pixels

Display aspect ratio                     : 2.40:1

Frame rate mode                          : Constant

Frame rate                               : 23.976 (24000/1001) FPS

Color space                              : YUV

Chroma subsampling                       : 4:2:0

Bit depth                                : 10 bits

Bits/(Pixel*Frame)                       : 0.174

Stream size                              : 6.34 GiB (78%)

Writing library                          : x265 3.2.1+3-b4b2ecac21f6:[Windows][MSVC 1924][64 bit] 10bit

Encoding settings                        : cpuid=1111039 / frame-threads=3 / numa-pools=12 / wpp / no-pmode / no-pme / no-psnr / no-ssim / log-level=2 / input-csp=1 / input-res=1920x800 / interlace=0 / total-frames=203848 / level-idc=0 / high-tier=1 / uhd-bd=0 / ref=4 / no-allow-non-conformance / no-repeat-headers / annexb / no-aud / no-hrd / info / hash=0 / no-temporal-layers / open-gop / min-keyint=23 / keyint=250 / gop-lookahead=0 / bframes=8 / b-adapt=2 / b-pyramid / bframe-bias=0 / rc-lookahead=80 / lookahead-slices=5 / scenecut=40 / radl=0 / no-splice / no-intra-refresh / ctu=64 / min-cu-size=8 / rect / no-amp / max-tu-size=32 / tu-inter-depth=1 / tu-intra-depth=1 / limit-tu=0 / rdoq-level=2 / dynamic-rd=0.00 / no-ssim-rd / signhide / no-tskip / nr-intra=0 / nr-inter=0 / no-constrained-intra / strong-intra-smoothing / max-merge=3 / limit-refs=3 / limit-modes / me=3 / subme=3 / merange=57 / temporal-mvp / no-hme / weightp / no-weightb / no-analyze-src-pics / deblock=0:0 / sao / no-sao-non-deblock / rd=4 / selective-sao=4 / no-early-skip / rskip / no-fast-intra / no-tskip-fast / no-cu-lossless / no-b-intra / no-splitrd-skip / rdpenalty=0 / psy-rd=0.30 / psy-rdoq=1.00 / no-rd-refine / no-lossless / cbqpoffs=0 / crqpoffs=0 / rc=crf / crf=19.0 / qcomp=0.60 / qpstep=4 / stats-write=0 / stats-read=0 / ipratio=1.40 / pbratio=1.30 / aq-mode=3 / aq-strength=1.00 / cutree / zone-count=0 / no-strict-cbr / qg-size=32 / no-rc-grain / qpmax=69 / qpmin=0 / no-const-vbv / sar=0 / overscan=0 / videoformat=5 / range=0 / colorprim=2 / transfer=2 / colormatrix=2 / chromaloc=0 / display-window=0 / cll=0,0 / min-luma=0 / max-luma=1023 / log2-max-poc-lsb=8 / vui-timing-info / vui-hrd-info / slices=1 / no-opt-qp-pps / no-opt-ref-list-length-pps / no-multi-pass-opt-rps / scenecut-bias=0.05 / no-opt-cu-delta-qp / no-aq-motion / no-hdr / no-hdr-opt / no-dhdr10-opt / no-idr-recovery-sei / analysis-reuse-level=5 / scale-factor=0 / refine-intra=0 / refine-inter=0 / refine-mv=1 / refine-ctu-distortion=0 / no-limit-sao / ctu-info=0 / no-lowpass-dct / refine-analysis-type=0 / copy-pic=1 / max-ausize-factor=1.0 / no-dynamic-refine / no-single-sei / no-hevc-aq / no-svt / no-field / qp-adaptation-range=1.00

Default                                  : Yes

Forced                                   : No



Audio

ID                                       : 2

Format                                   : AAC LC

Format/Info                              : Advanced Audio Codec Low Complexity

Codec ID                                 : A_AAC-2

Duration                                 : 2 h 21 min

Bit rate                                 : 1 349 kb/s

Channel(s)                               : 8 channels

Channel layout                           : C L R Ls Rs Lb Rb LFE

Sampling rate                            : 48.0 kHz

Frame rate                               : 46.875 FPS (1024 SPF)

Compression mode                         : Lossy

Delay relative to video                  : 9 ms

Stream size                              : 1.33 GiB (16%)

Language                                 : English

Default                                  : Yes

Forced                                   : No



Text #1

ID                                       : 3

Format                                   : PGS

Muxing mode                              : zlib

Codec ID                                 : S_HDMV/PGS

Codec ID/Info                            : Picture based subtitle format used on BDs/HD-DVDs

Duration                                 : 2 h 20 min

Bit rate                                 : 28.4 kb/s

Count of elements                        : 2817

Stream size                              : 28.6 MiB (0%)

Language                                 : English

Default                                  : No

Forced                                   : No



Text #2

ID                                       : 4

Format                                   : PGS

Muxing mode                              : zlib

Codec ID                                 : S_HDMV/PGS

Codec ID/Info                            : Picture based subtitle format used on BDs/HD-DVDs

Duration                                 : 2 h 21 min

Bit rate                                 : 32.7 kb/s

Count of elements                        : 3247

Stream size                              : 33.0 MiB (0%)

Title                                    : SDH

Language                                 : English

Default                                  : No

Forced                                   : No



Text #3

ID                                       : 5

Format                                   : PGS

Muxing mode                              : zlib

Codec ID                                 : S_HDMV/PGS

Codec ID/Info                            : Picture based subtitle format used on BDs/HD-DVDs

Duration                                 : 2 h 21 min

Bit rate                                 : 15.3 kb/s

Count of elements                        : 2838

Stream size                              : 15.5 MiB (0%)

Language                                 : Arabic

Default                                  : No

Forced                                   : No



Text #4

ID                                       : 6

Format                                   : PGS

Muxing mode                              : zlib

Codec ID                                 : S_HDMV/PGS

Codec ID/Info                            : Picture based subtitle format used on BDs/HD-DVDs

Duration                                 : 2 h 21 min

Bit rate                                 : 24.4 kb/s

Count of elements                        : 2841

Stream size                              : 24.6 MiB (0%)

Language                                 : Bulgarian

Default                                  : No

Forced                                   : No



Text #5

ID                                       : 7

Format                                   : PGS

Muxing mode                              : zlib

Codec ID                                 : S_HDMV/PGS

Codec ID/Info                            : Picture based subtitle format used on BDs/HD-DVDs

Duration                                 : 2 h 20 min

Bit rate                                 : 28.9 kb/s

Count of elements                        : 2924

Stream size                              : 29.1 MiB (0%)

Language                                 : Catalan

Default                                  : No

Forced                                   : No



Text #6

ID                                       : 8

Format                                   : PGS

Muxing mode                              : zlib

Codec ID                                 : S_HDMV/PGS

Codec ID/Info                            : Picture based subtitle format used on BDs/HD-DVDs

Duration                                 : 2 h 21 min

Bit rate                                 : 28.7 kb/s

Count of elements                        : 2885

Stream size                              : 29.0 MiB (0%)

Language                                 : Chinese

Default                                  : No

Forced                                   : No



Text #7

ID                                       : 9

Format                                   : PGS

Muxing mode                              : zlib

Codec ID                                 : S_HDMV/PGS

Codec ID/Info                            : Picture based subtitle format used on BDs/HD-DVDs

Duration                                 : 2 h 21 min

Bit rate                                 : 20.3 kb/s

Count of elements                        : 2760

Stream size                              : 20.5 MiB (0%)

Language                                 : Croatian

Default                                  : No

Forced                                   : No



Text #8

ID                                       : 10

Format                                   : PGS

Muxing mode                              : zlib

Codec ID                                 : S_HDMV/PGS

Codec ID/Info                            : Picture based subtitle format used on BDs/HD-DVDs

Duration                                 : 2 h 21 min

Bit rate                                 : 24.9 kb/s

Count of elements                        : 2764

Stream size                              : 25.2 MiB (0%)

Language                                 : Czech

Default                                  : No

Forced                                   : No



Text #9

ID                                       : 11

Format                                   : PGS

Muxing mode                              : zlib

Codec ID                                 : S_HDMV/PGS

Codec ID/Info                            : Picture based subtitle format used on BDs/HD-DVDs

Duration                                 : 2 h 20 min

Bit rate                                 : 22.6 kb/s

Count of elements                        : 2156

Stream size                              : 22.7 MiB (0%)

Language                                 : Danish

Default                                  : No

Forced                                   : No



Text #10

ID                                       : 12

Format                                   : PGS

Muxing mode                              : zlib

Codec ID                                 : S_HDMV/PGS

Codec ID/Info                            : Picture based subtitle format used on BDs/HD-DVDs

Duration                                 : 2 h 20 min

Bit rate                                 : 23.2 kb/s

Count of elements                        : 2250

Stream size                              : 23.4 MiB (0%)

Language                                 : Dutch

Default                                  : No

Forced                                   : No



Text #11

ID                                       : 13

Format                                   : PGS

Muxing mode                              : zlib

Codec ID                                 : S_HDMV/PGS

Codec ID/Info                            : Picture based subtitle format used on BDs/HD-DVDs

Duration                                 : 2 h 21 min

Bit rate                                 : 26.3 kb/s

Count of elements                        : 2561

Stream size                              : 26.5 MiB (0%)

Language                                 : Estonian

Default                                  : No

Forced                                   : No



Text #12

ID                                       : 14

Format                                   : PGS

Muxing mode                              : zlib

Codec ID                                 : S_HDMV/PGS

Codec ID/Info                            : Picture based subtitle format used on BDs/HD-DVDs

Duration                                 : 2 h 20 min

Bit rate                                 : 23.4 kb/s

Count of elements                        : 2286

Stream size                              : 23.5 MiB (0%)

Language                                 : Finnish

Default                                  : No

Forced                                   : No



Text #13

ID                                       : 15

Format                                   : PGS

Muxing mode                              : zlib

Codec ID                                 : S_HDMV/PGS

Codec ID/Info                            : Picture based subtitle format used on BDs/HD-DVDs

Duration                                 : 2 h 20 min

Bit rate                                 : 22.7 kb/s

Count of elements                        : 2900

Stream size                              : 22.9 MiB (0%)

Language                                 : French

Default                                  : No

Forced                                   : No



Text #14

ID                                       : 16

Format                                   : PGS

Muxing mode                              : zlib

Codec ID                                 : S_HDMV/PGS

Codec ID/Info                            : Picture based subtitle format used on BDs/HD-DVDs

Duration                                 : 2 h 20 min

Bit rate                                 : 32.4 kb/s

Count of elements                        : 2829

Stream size                              : 32.6 MiB (0%)

Language                                 : German

Default                                  : No

Forced                                   : No



Text #15

ID                                       : 17

Format                                   : PGS

Muxing mode                              : zlib

Codec ID                                 : S_HDMV/PGS

Codec ID/Info                            : Picture based subtitle format used on BDs/HD-DVDs

Duration                                 : 2 h 20 min

Bit rate                                 : 36.4 kb/s

Count of elements                        : 3277

Stream size                              : 36.6 MiB (0%)

Title                                    : SDH

Language                                 : German

Default                                  : No

Forced                                   : No



Text #16

ID                                       : 18

Format                                   : PGS

Muxing mode                              : zlib

Codec ID                                 : S_HDMV/PGS

Codec ID/Info                            : Picture based subtitle format used on BDs/HD-DVDs

Duration                                 : 2 h 21 min

Bit rate                                 : 23.9 kb/s

Count of elements                        : 2700

Stream size                              : 24.1 MiB (0%)

Language                                 : Greek

Default                                  : No

Forced                                   : No



Text #17

ID                                       : 19

Format                                   : PGS

Muxing mode                              : zlib

Codec ID                                 : S_HDMV/PGS

Codec ID/Info                            : Picture based subtitle format used on BDs/HD-DVDs

Duration                                 : 2 h 21 min

Bit rate                                 : 21.4 kb/s

Count of elements                        : 2792

Stream size                              : 21.6 MiB (0%)

Language                                 : Hebrew

Default                                  : No

Forced                                   : No



Text #18

ID                                       : 20

Format                                   : PGS

Muxing mode                              : zlib

Codec ID                                 : S_HDMV/PGS

Codec ID/Info                            : Picture based subtitle format used on BDs/HD-DVDs

Duration                                 : 2 h 21 min

Bit rate                                 : 24.5 kb/s

Count of elements                        : 2794

Stream size                              : 24.8 MiB (0%)

Language                                 : Hungarian

Default                                  : No

Forced                                   : No



Text #19

ID                                       : 21

Format                                   : PGS

Muxing mode                              : zlib

Codec ID                                 : S_HDMV/PGS

Codec ID/Info                            : Picture based subtitle format used on BDs/HD-DVDs

Duration                                 : 2 h 21 min

Bit rate                                 : 28.2 kb/s

Count of elements                        : 2825

Stream size                              : 28.4 MiB (0%)

Language                                 : Icelandic

Default                                  : No

Forced                                   : No



Text #20

ID                                       : 22

Format                                   : PGS

Muxing mode                              : zlib

Codec ID                                 : S_HDMV/PGS

Codec ID/Info                            : Picture based subtitle format used on BDs/HD-DVDs

Duration                                 : 2 h 21 min

Bit rate                                 : 29.1 kb/s

Count of elements                        : 2827

Stream size                              : 29.4 MiB (0%)

Language                                 : Indonesian

Default                                  : No

Forced                                   : No



Text #21

ID                                       : 23

Format                                   : PGS

Muxing mode                              : zlib

Codec ID                                 : S_HDMV/PGS

Codec ID/Info                            : Picture based subtitle format used on BDs/HD-DVDs

Duration                                 : 2 h 20 min

Bit rate                                 : 28.9 kb/s

Count of elements                        : 2837

Stream size                              : 29.1 MiB (0%)

Language                                 : Italian

Default                                  : No

Forced                                   : No



Text #22

ID                                       : 24

Format                                   : PGS

Muxing mode                              : zlib

Codec ID                                 : S_HDMV/PGS

Codec ID/Info                            : Picture based subtitle format used on BDs/HD-DVDs

Duration                                 : 2 h 20 min

Bit rate                                 : 33.3 kb/s

Count of elements                        : 3281

Stream size                              : 33.5 MiB (0%)

Title                                    : SDH

Language                                 : Italian

Default                                  : No

Forced                                   : No



Text #23

ID                                       : 25

Format                                   : PGS

Muxing mode                              : zlib

Codec ID                                 : S_HDMV/PGS

Codec ID/Info                            : Picture based subtitle format used on BDs/HD-DVDs

Duration                                 : 2 h 20 min

Bit rate                                 : 22.5 kb/s

Count of elements                        : 3220

Stream size                              : 22.6 MiB (0%)

Language                                 : Japanese

Default                                  : No

Forced                                   : No



Text #24

ID                                       : 26

Format                                   : PGS

Muxing mode                              : zlib

Codec ID                                 : S_HDMV/PGS

Codec ID/Info                            : Picture based subtitle format used on BDs/HD-DVDs

Duration                                 : 2 h 20 min

Bit rate                                 : 16.8 kb/s

Count of elements                        : 2881

Stream size                              : 16.9 MiB (0%)

Language                                 : Korean

Default                                  : No

Forced                                   : No



Text #25

ID                                       : 27

Format                                   : PGS

Muxing mode                              : zlib

Codec ID                                 : S_HDMV/PGS

Codec ID/Info                            : Picture based subtitle format used on BDs/HD-DVDs

Duration                                 : 2 h 21 min

Bit rate                                 : 21.8 kb/s

Count of elements                        : 2777

Stream size                              : 22.0 MiB (0%)

Language                                 : Latvian

Default                                  : No

Forced                                   : No



Text #26

ID                                       : 28

Format                                   : PGS

Muxing mode                              : zlib

Codec ID                                 : S_HDMV/PGS

Codec ID/Info                            : Picture based subtitle format used on BDs/HD-DVDs

Duration                                 : 2 h 20 min

Bit rate                                 : 26.5 kb/s

Count of elements                        : 2982

Stream size                              : 26.7 MiB (0%)

Language                                 : Lithuanian

Default                                  : No

Forced                                   : No



Text #27

ID                                       : 29

Format                                   : PGS

Muxing mode                              : zlib

Codec ID                                 : S_HDMV/PGS

Codec ID/Info                            : Picture based subtitle format used on BDs/HD-DVDs

Duration                                 : 2 h 20 min

Bit rate                                 : 27.5 kb/s

Count of elements                        : 2730

Stream size                              : 27.7 MiB (0%)

Language                                 : Norwegian

Default                                  : No

Forced                                   : No



Text #28

ID                                       : 30

Format                                   : PGS

Muxing mode                              : zlib

Codec ID                                 : S_HDMV/PGS

Codec ID/Info                            : Picture based subtitle format used on BDs/HD-DVDs

Duration                                 : 2 h 20 min

Bit rate                                 : 23.9 kb/s

Count of elements                        : 2537

Stream size                              : 24.0 MiB (0%)

Language                                 : Polish

Default                                  : No

Forced                                   : No



Text #29

ID                                       : 31

Format                                   : PGS

Muxing mode                              : zlib

Codec ID                                 : S_HDMV/PGS

Codec ID/Info                            : Picture based subtitle format used on BDs/HD-DVDs

Duration                                 : 2 h 20 min

Bit rate                                 : 29.0 kb/s

Count of elements                        : 2827

Stream size                              : 29.2 MiB (0%)

Title                                    : Brazilian

Language                                 : Portuguese

Default                                  : No

Forced                                   : No



Text #30

ID                                       : 32

Format                                   : PGS

Muxing mode                              : zlib

Codec ID                                 : S_HDMV/PGS

Codec ID/Info                            : Picture based subtitle format used on BDs/HD-DVDs

Duration                                 : 2 h 20 min

Bit rate                                 : 27.7 kb/s

Count of elements                        : 2713

Stream size                              : 27.9 MiB (0%)

Title                                    : Iberian

Language                                 : Portuguese

Default                                  : No

Forced                                   : No



Text #31

ID                                       : 33

Format                                   : PGS

Muxing mode                              : zlib

Codec ID                                 : S_HDMV/PGS

Codec ID/Info                            : Picture based subtitle format used on BDs/HD-DVDs

Duration                                 : 2 h 21 min

Bit rate                                 : 25.4 kb/s

Count of elements                        : 2723

Stream size                              : 25.6 MiB (0%)

Language                                 : Romanian

Default                                  : No

Forced                                   : No



Text #32

ID                                       : 34

Format                                   : PGS

Muxing mode                              : zlib

Codec ID                                 : S_HDMV/PGS

Codec ID/Info                            : Picture based subtitle format used on BDs/HD-DVDs

Duration                                 : 2 h 21 min

Bit rate                                 : 29.6 kb/s

Count of elements                        : 2843

Stream size                              : 29.9 MiB (0%)

Language                                 : Russian

Default                                  : No

Forced                                   : No



Text #33

ID                                       : 35

Format                                   : PGS

Muxing mode                              : zlib

Codec ID                                 : S_HDMV/PGS

Codec ID/Info                            : Picture based subtitle format used on BDs/HD-DVDs

Duration                                 : 2 h 21 min

Bit rate                                 : 25.7 kb/s

Count of elements                        : 2817

Stream size                              : 25.9 MiB (0%)

Language                                 : Serbian

Default                                  : No

Forced                                   : No



Text #34

ID                                       : 36

Format                                   : PGS

Muxing mode                              : zlib

Codec ID                                 : S_HDMV/PGS

Codec ID/Info                            : Picture based subtitle format used on BDs/HD-DVDs

Duration                                 : 2 h 21 min

Bit rate                                 : 24.9 kb/s

Count of elements                        : 2826

Stream size                              : 25.2 MiB (0%)

Language                                 : Slovak

Default                                  : No

Forced                                   : No



Text #35

ID                                       : 37

Format                                   : PGS

Muxing mode                              : zlib

Codec ID                                 : S_HDMV/PGS

Codec ID/Info                            : Picture based subtitle format used on BDs/HD-DVDs

Duration                                 : 2 h 21 min

Bit rate                                 : 20.6 kb/s

Count of elements                        : 2774

Stream size                              : 20.7 MiB (0%)

Language                                 : Slovenian

Default                                  : No

Forced                                   : No



Text #36

ID                                       : 38

Format                                   : PGS

Muxing mode                              : zlib

Codec ID                                 : S_HDMV/PGS

Codec ID/Info                            : Picture based subtitle format used on BDs/HD-DVDs

Duration                                 : 2 h 20 min

Bit rate                                 : 26.8 kb/s

Count of elements                        : 2811

Stream size                              : 26.9 MiB (0%)

Title                                    : Castilian

Language                                 : Spanish

Default                                  : No

Forced                                   : No



Text #37

ID                                       : 39

Format                                   : PGS

Muxing mode                              : zlib

Codec ID                                 : S_HDMV/PGS

Codec ID/Info                            : Picture based subtitle format used on BDs/HD-DVDs

Duration                                 : 2 h 20 min

Bit rate                                 : 27.2 kb/s

Count of elements                        : 2775

Stream size                              : 27.3 MiB (0%)

Title                                    : Latin American

Language                                 : Spanish

Default                                  : No

Forced                                   : No



Text #38

ID                                       : 40

Format                                   : PGS

Muxing mode                              : zlib

Codec ID                                 : S_HDMV/PGS

Codec ID/Info                            : Picture based subtitle format used on BDs/HD-DVDs

Duration                                 : 2 h 20 min

Bit rate                                 : 21.1 kb/s

Count of elements                        : 2179

Stream size                              : 21.2 MiB (0%)

Language                                 : Swedish

Default                                  : No

Forced                                   : No



Text #39

ID                                       : 41

Format                                   : PGS

Muxing mode                              : zlib

Codec ID                                 : S_HDMV/PGS

Codec ID/Info                            : Picture based subtitle format used on BDs/HD-DVDs

Duration                                 : 2 h 21 min

Bit rate                                 : 29.3 kb/s

Count of elements                        : 2814

Stream size                              : 29.6 MiB (0%)

Language                                 : Thai

Default                                  : No

Forced                                   : No



Text #40

ID                                       : 42

Format                                   : PGS

Muxing mode                              : zlib

Codec ID                                 : S_HDMV/PGS

Codec ID/Info                            : Picture based subtitle format used on BDs/HD-DVDs

Duration                                 : 2 h 21 min

Bit rate                                 : 27.4 kb/s

Count of elements                        : 2726

Stream size                              : 27.7 MiB (0%)

Language                                 : Turkish

Default                                  : No

Forced                                   : No



Text #41

ID                                       : 43

Format                                   : PGS

Muxing mode                              : zlib

Codec ID                                 : S_HDMV/PGS

Codec ID/Info                            : Picture based subtitle format used on BDs/HD-DVDs

Duration                                 : 2 h 21 min

Bit rate                                 : 28.1 kb/s

Count of elements                        : 2843

Stream size                              : 28.4 MiB (0%)

Language                                 : Ukrainian

Default                                  : No

Forced                                   : No



Menu

00:00:00.000                             : en:Under Covers Prologue

00:01:40.100                             : en:Aunt Marge's Big Mistake

00:06:36.229                             : en:The Knight Bus

00:12:45.932                             : en:The Leaky Cauldron

00:14:52.517                             : en:The Monster Book of Monsters

00:16:12.513                             : en:In Grave Danger

00:18:56.218                             : en:The Dementor

00:23:50.387                             : en:Welcome and Warning

00:28:50.729                             : en:Tea Leaves

00:31:21.838                             : en:Backbeak

00:38:50.161                             : en:Boggart in the Wardrobe

00:44:45.308                             : en:Talent for Trouble

00:47:37.813                             : en:Flight of the Fat Lady

00:49:39.935                             : en:Substitute Teacher

00:53:42.845                             : en:Grim Defeat

00:57:28.403                             : en:The Marauder's Map

01:01:23.722                             : en:Who's There?

01:03:22.924                             : en:I Hope He Finds Me

01:07:10.985                             : en:The Patronus

01:11:53.476                             : en:Seeing the Impossible

01:19:10.079                             : en:Professor Trelarney's Prediction

01:22:29.945                             : en:Witness to an Execution

01:27:30.871                             : en:The Whomping Willow

01:30:13.366                             : en:Sirius Black

01:34:19.028                             : en:Peter Pettigrew

01:36:56.894                             : en:Friends Become Foes

01:42:24.472                             : en:The Dementor's Kiss

01:45:40.334                             : en:Hermione's Secret

01:50:03.597                             : en:Onlookers to the Rescue

01:55:33.343                             : en:Saving Lives

02:00:07.409                             : en:Truly Seen, Truly Free

02:03:16.055                             : en:Two Places at Once

02:06:02.513                             : en:Mischief Managed

02:08:42.924                             : en:The Firebolt

02:09:47.405                             : en:End Credits Map



Source:







Next movie:



Discussion

Comments 0

Post Your Comment

Files in this torrent

FILENAMESIZE
Harry Potter and the Prisoner of Azkaban (2004) [1080p x265 HEVC 10bit BluRay AAC 7.1] [Prof].mkv8.1 GB

Alternative Torrents for 'Harry Potter and Prisoner of Azkaban HEVC bit BluRay AAC . Prof'.

There are no alternative torrents found.