Avengers Endgame (2019) UNCUT BluRay Dual Audio [Hindi-English] ESubs X264 AAC 500MB

Torrent Details

 Avengers Endgame (2019) UNCUT BluRay Dual Audio [Hindi-English] ESubs x264 AAC 500MB

NAME
Avengers Endgame (2019) UNCUT BluRay Dual Audio [Hindi-English] ESubs x264 AAC 500MB.torrent
CATEGORY
Movies
INFOHASH
912572e5b940a866e006aa4f4d96ad9d75b821dc
SIZE
491 MB in 1 file
ADDED
Uploaded on 08-02-2020 by our crawler pet called "Spidey".
SWARM
0 seeders & 0 peers
RATING
No votes yet.

Please login to vote for this torrent.


Description

Avengers Endgame (2019) UNCUT BluRay Dual Audio [Hindi-English] ESubs x264 AAC 500MB



..:: INFO ::..


Format : Matroska
Format version : Version 4 / Version 2
File size : 491 MiB
Duration : 3 h 2 min
Overall bit rate : 377 kb/s
Encoded date : UTC 2015-04-23 21:12:41
Writing application : mkvmerge v42.0.0 ('Overtime') 64-bit
Writing library : libebml v1.3.10 + libmatroska v1.5.2

Video
ID : 1
Format : AVC
Format/Info : Advanced Video Codec
Format profile : [email protected]
Format settings, CABAC : Yes
Format settings, RefFrames : 4 frames
Codec ID : V_MPEG4/ISO/AVC
Duration : 3 h 1 min
Bit rate : 300 kb/s
Width : 640 pixels
Height : 360 pixels
Display aspect ratio : 16:9
Frame rate mode : Constant
Frame rate : 23.000 FPS
Color space : YUV
Chroma subsampling : 4:2:0
Bit depth : 8 bits
Scan type : Progressive
Bits/(Pixel*Frame) : 0.057
Stream size : 390 MiB (79%)
Language : English
Default : Yes
Forced : No

Audio #1
ID : 2
Format : AAC
Format/Info : Advanced Audio Codec
Format profile : LC
Codec ID : A_AAC
Duration : 3 h 2 min
Bit rate : 32.1 kb/s
Channel(s) : 2 channels
Channel positions : Front: L R
Sampling rate : 22.05 kHz
Frame rate : 21.533 FPS (1024 SPF)
Compression mode : Lossy
Delay relative to video : 2 s 751 ms
Stream size : 41.8 MiB (9%)
Language : Hindi
Default : Yes
Forced : No

Audio #2
ID : 3
Format : AAC
Format/Info : Advanced Audio Codec
Format profile : LC
Codec ID : A_AAC
Duration : 3 h 1 min
Bit rate : 32.2 kb/s
Channel(s) : 2 channels
Channel positions : Front: L R
Sampling rate : 22.05 kHz
Frame rate : 21.533 FPS (1024 SPF)
Compression mode : Lossy
Stream size : 41.7 MiB (9%)
Language : English
Default : No
Forced : No

Text
ID : 4
Format : PGS
Muxing mode : zlib
Codec ID : S_HDMV/PGS
Codec ID/Info : Picture based subtitle format used on BDs/HD-DVDs
Duration : 3 h 0 min
Bit rate : 33.9 kb/s
Count of elements : 5266
Stream size : 43.8 MiB (9%)
Language : English
Default : Yes
Forced : No




..:: SCREENSHOTS ::..



PLEASE SEED AS LONG AS POSSIBLE .. ENJOY

Discussion

Comments 0

Post Your Comment

Files in this torrent

FILENAMESIZE
www.MechBoy.in - Avengers Endgame (2019) UNCUT BluRay Dual Audio [Hindi-English] ESubs x264 AAC 500MB.mkv490.9 MB

Alternative Torrents for 'Avengers Endgame UNCUT BluRay Dual Audio HindiEnglish ESubs AAC MB'.

TORRENT NAMEADDEDSIZESEEDSPEERSHEALTH
11/6/2020797 MB21751037
11/8/20201.7 GB1213137
11/29/20201.5 GB9891146
10/1/20201.6 GB93076
11/24/20201.1 GB919122
11/8/2020864 MB90190
11/24/20202.2 GB888116
11/29/2020972 MB774348
11/28/2020272 MB761376
9/7/20205.6 GB742251
11/28/2020273 MB737283
9/7/20204.2 GB706260
11/28/20204.5 GB6951108
9/7/20205.6 GB663184
11/7/20202.1 GB601341