KENGAN ASHURA

Torrent Details


KENGAN ASHURA

NAME
KENGAN ASHURA.torrent
CATEGORY
Anime
INFOHASH
96943f133f1dc5d1c10ad86bf3f115dfee402abb
SIZE
6.1 GB in 23 files
ADDED
Uploaded on 09-02-2020 by our crawler pet called "Spidey".
SWARM
0 seeders & 0 peers
RATING
This torrent has a bad rating! This torrent has BAD rating with 0 votes.

Please login to vote for this torrent.


Description

Ohma Tokita intră într-o lume unde conflictele dintre corporații sunt rezolvate prin brutale lupte de gladiatori. El nu vrea bani, ci doar sânge și victoria supremă.



https://www.netflix.com/ro/title/80992228











[MediaInfo]General

Complete name                            : KENGAN ASHURASezonul 1KENGAN ASHURA - s01e01 Kengan.mp4

Format                                   : MPEG-4

Format profile                           : Base Media

Codec ID                                 : isom (isom/iso2/avc1/mp41)

File size                                : 187 MiB

Duration                                 : 24 min 38 s

Overall bit rate mode                    : Variable

Overall bit rate                         : 1 062 kb/s

Collection                               : KENGAN ASHURA

Season                                   : 1

Part                                     : 1

Track name                               : s01e01 Kengan

Performer                                : KENGAN ASHURA

ContentType                              : TV Show

Writing application                      : Lavf58.29.100

Comment                                  : Directorul Nogi îl cheamă deodată pe umilul angajat Kazuo Yamashita la ședință și îi dă o nouă sarcină, pe cât de neașteptată, pe atât de puțin bine-venită.



Video

ID                                       : 1

Format                                   : AVC

Format/Info                              : Advanced Video Codec

Format profile                           : [email protected]

Format settings                          : CABAC / 2 Ref Frames

Format settings, CABAC                   : Yes

Format settings, Reference frames        : 2 frames

Codec ID                                 : avc1

Codec ID/Info                            : Advanced Video Coding

Duration                                 : 24 min 38 s

Bit rate                                 : 929 kb/s

Width                                    : 1 280 pixels

Height                                   : 720 pixels

Display aspect ratio                     : 16:9

Frame rate mode                          : Constant

Frame rate                               : 25.000 FPS

Color space                              : YUV

Chroma subsampling                       : 4:2:0

Bit depth                                : 8 bits

Scan type                                : Progressive

Bits/(Pixel*Frame)                       : 0.040

Stream size                              : 164 MiB (87%)

Writing library                          : x264 core 157 r2969 d4099dd



Codec configuration box                  : avcC



Audio

ID                                       : 2

Format                                   : AAC LC

Format/Info                              : Advanced Audio Codec Low Complexity

Codec ID                                 : mp4a-40-2

Duration                                 : 24 min 38 s

Bit rate mode                            : Variable

Bit rate                                 : 127 kb/s

Maximum bit rate                         : 128 kb/s

Channel(s)                               : 2 channels

Channel layout                           : L R

Sampling rate                            : 44.1 kHz

Frame rate                               : 43.066 FPS (1024 SPF)

Compression mode                         : Lossy

Stream size                              : 22.3 MiB (12%)

Default                                  : Yes

Alternate group                          : 1



[/MediaInfo]

Discussion

Comments 0

Post Your Comment

Files in this torrent

FILENAMESIZE
mediainfo.txt4 KB
poster.jpg453.9 KB
readme.txt36 B
screens/KENGAN ASHURA - s01e01 Kengan-1.jpeg92.3 KB
screens/KENGAN ASHURA - s01e01 Kengan-2.jpeg108 KB
screens/KENGAN ASHURA - s01e01 Kengan-3.jpeg111.6 KB
Sezonul 1/KENGAN ASHURA - s01e01 Kengan.mp4187.2 MB
Sezonul 1/KENGAN ASHURA - s01e02 Superomul.mp4252.3 MB
Sezonul 1/KENGAN ASHURA - s01e03 Durul.mp4270.5 MB
Sezonul 1/KENGAN ASHURA - s01e04 Reîntâlnirea.mp4214.2 MB
Sezonul 1/KENGAN ASHURA - s01e06 Culisele.mp4228.3 MB
Sezonul 1/KENGAN ASHURA - s01e07 Noaptea de dinainte.mp4213.6 MB
Sezonul 1/KENGAN ASHURA - s01e08 Începutul luptei.mp4306.6 MB
Sezonul 1/KENGAN ASHURA - s01e09 Dreptate.mp4305.5 MB
Sezonul 1/KENGAN ASHURA - s01e10 Sora.mp4274.9 MB
Sezonul 1/KENGAN ASHURA - s01e11 Ashura.mp4285.8 MB
Sezonul 2/KENGAN ASHURA - s02e01 Convingeri.mp4284.2 MB
Sezonul 2/KENGAN ASHURA - s02e03 Pescarul.mp4284.5 MB
Sezonul 2/KENGAN ASHURA - s02e04 Rakshasa.mp4278.8 MB
Sezonul 2/KENGAN ASHURA - s02e05 Lancea diavolului.mp4273.7 MB
Sezonul 2/KENGAN ASHURA - s02e08 Campionii.mp4258.4 MB
Sezonul 2/KENGAN ASHURA - s02e09 Abisul.mp4269.5 MB
Sezonul 2/KENGAN ASHURA - s02e11 Diavolul.mp4295 MB

Alternative Torrents for 'KENGAN ASHURA'.

TORRENT NAMEADDEDSIZESEEDSPEERSHEALTH
11/15/20208.2 GB00
2/9/20206.1 GB00
12/29/20193.4 GB00
12/6/201918 GB00
11/2/201914.7 GB00
11/2/20198.2 GB00
8/11/201914.4 GB00
8/11/20198.7 GB00
8/1/201910.8 GB00