Eminem - Music To Be Murdered By [24bit Hi-Res] (2020) FLAC

Torrent Details


Eminem - Music to be Murdered By [24bit Hi-Res] (2020) FLAC

NAME
Eminem - Music to be Murdered By [24bit Hi-Res] (2020) FLAC.torrent
CATEGORY
Music
INFOHASH
69d340f6b3aeb1c54f0753a21fa5592f0f0a7bd2
SIZE
748 MB in 22 files
ADDED
Uploaded on 12-02-2020 by our crawler pet called "Spidey".
SWARM
0 seeders & 0 peers
RATING
No votes yet.

Please login to vote for this torrent.


Description

Исполнитель: Eminem | Название: Music to be Murdered By | Страна: USA

Жанр: Hip-Hop, Rap

Год: 2020 | Продолжительность: 01:04:22

Битрейт аудио: Lossless | Формат/Кодек: FLAC

Разрядность: 24/44.1 | Количество каналов: 2.0

Тип рипа: tracks





01. Premonition (Intro) (02:53)

02. Unaccommodating (feat. Young M.A) (03:36)

03. You Gon' Learn (feat. Royce da 5'9" & White Gold) (03:54)

04. Alfred (Interlude) (00:30)

05. Those Kinda Nights (feat. Ed Sheeran) (02:57)

06. In Too Deep (03:14)

07. Godzilla (feat. Juice WRLD) (03:30)

08. Darkness (05:37)

09. Leaving Heaven (feat. Skylar Grey) (04:25)

10. Yah Yah (feat. Royce Da 5'9", Black Thought, Q-Tip & Denaun) (04:46)

11. Stepdad (Intro) (00:15)

12. Stepdad (03:33)

13. Marsh (03:20)

14. Never Love Again (02:57)

15. Little Engine (02:57)

16. Lock It Up (feat. Anderson .Paak) (02:50)

17. Farewell (04:07)

18. No Regrets (feat. Don Toliver) (03:20)

19. I Will (feat. KXNG Crooked, Royce da 5'9" & Joell Ortiz) (05:02)

20. Alfred (Outro) (00:39)



Дополнительная информация:

Eminem удивил слушателей, внезапно выпустив новый сольный альбом «Music To Be Murdered By». Это 11-я пластинка в дискографии Маршалла и его первый релиз после альбома «Kamikaze», релиз которого также состоялся без предупреждения в 2018 году.

DRfoobar2000 1.5 / Замер динамического диапазона (DR) 1.1.1

Дата отчёта: 2020-01-18 07:38:09



--------------------------------------------------------------------------------

Анализ: Eminem / Music To Be Murdered By (Explicit)

--------------------------------------------------------------------------------



DR Пики RMS Продолжительность трека

--------------------------------------------------------------------------------

DR5 -0.25 дБ -6.09 дБ 2:54 01-Premonition (Intro)

DR4 -0.20 дБ -5.37 дБ 3:37 02-Unaccommodating

DR5 -0.20 дБ -6.50 дБ 3:55 03-You Gon’ Learn

DR14 -3.32 дБ -22.19 дБ 0:30 04-Alfred (Interlude)

DR5 -0.20 дБ -7.02 дБ 2:58 05-Those Kinda Nights

DR6 -0.20 дБ -7.60 дБ 3:15 06-In Too Deep

DR6 -0.66 дБ -7.89 дБ 3:31 07-Godzilla

DR5 -0.21 дБ -7.31 дБ 5:37 08-Darkness

DR5 -0.54 дБ -8.01 дБ 4:26 09-Leaving Heaven

DR5 -0.29 дБ -5.97 дБ 4:47 10-Yah Yah

DR7 -2.56 дБ -10.69 дБ 0:15 11-Stepdad (Intro)

DR6 -0.20 дБ -6.80 дБ 3:33 12-Stepdad

DR5 -0.68 дБ -6.35 дБ 3:21 13-Marsh

DR8 -0.20 дБ -9.45 дБ 2:58 14-Never Love Again

DR5 -0.20 дБ -6.93 дБ 2:57 15-Little Engine

DR5 -0.20 дБ -6.25 дБ 2:50 16-Lock It Up

DR5 -0.20 дБ -7.16 дБ 4:08 17-Farewell

DR4 -0.40 дБ -4.83 дБ 3:21 18-No Regrets

DR6 -0.20 дБ -6.69 дБ 5:03 19-I Will

DR3 -0.20 дБ -16.85 дБ 0:39 20-Alfred (Outro)

--------------------------------------------------------------------------------



Количество треков: 20

Реальные значения DR: DR6



Частота: 44100 Гц

Каналов: 2

Разрядность: 24

Битрейт: 1319 кбит/с

Кодек: FLAC

================================================================================

Discussion

Comments 0

Post Your Comment

Files in this torrent

FILENAMESIZE
01 - Premonition (Intro).flac32.6 MB
02 - Unaccommodating.flac40.3 MB
03 - You Gon’ Learn.flac46.6 MB
04 - Alfred (Interlude).flac5.4 MB
05 - Those Kinda Nights.flac34.6 MB
06 - In Too Deep.flac38 MB
07 - Godzilla.flac40.3 MB
08 - Darkness.flac61.1 MB
09 - Leaving Heaven.flac52.2 MB
10 - Yah Yah.flac63.3 MB
11 - Stepdad (Intro).flac2.9 MB
12 - Stepdad.flac41.3 MB
13 - Marsh.flac37.6 MB
14 - Never Love Again.flac34 MB
15 - Little Engine.flac34.6 MB
16 - Lock It Up.flac33.8 MB
17 - Farewell.flac48.5 MB
18 - No Regrets.flac38.7 MB
19 - I Will.flac55.9 MB
20 - Alfred (Outro).flac6.5 MB
cover.jpg341.2 KB
foo_dr.txt2.1 KB

Alternative Torrents for 'Eminem Music to be Murdered By bit HiRes FLAC'.

There are no alternative torrents found.