Harry Potter And The Deathly Hallows Part 2 (2011) [1080p X265 HEVC 10bit BluRay AAC 5.1] [Prof]

Torrent Details


Harry Potter and the Deathly Hallows Part 2 (2011) [1080p x265 HEVC 10bit BluRay AAC 5.1] [Prof]

NAME
Harry Potter and the Deathly Hallows Part 2 (2011) [1080p x265 HEVC 10bit BluRay AAC 5.1] [Prof].torrent
CATEGORY
Movies
INFOHASH
66e1b4101d3b503ac7f25c5fa6373dbc2dac44a3
SIZE
5.9 GB in 1 file
ADDED
Uploaded on 25-02-2020 by our crawler pet called "Spidey".
SWARM
0 seeders & 0 peers
RATING
No votes yet.

Please login to vote for this torrent.


Description













Format                                   : Matroska

Format version                           : Version 4

File size                                : 5.92 GiB

Duration                                 : 2 h 10 min

Overall bit rate                         : 6 497 kb/s

Encoded date                             : UTC 2020-02-25 03:32:08

Writing application                      : mkvmerge v41.0.0 ('Smarra') 64-bit

Writing library                          : libebml v1.3.9 + libmatroska v1.5.2



Video

ID                                       : 1

Format                                   : HEVC

Format/Info                              : High Efficiency Video Coding

Format profile                           : Main [email protected]@Main

Codec ID                                 : V_MPEGH/ISO/HEVC

Duration                                 : 2 h 10 min

Bit rate                                 : 5 464 kb/s

Width                                    : 1 920 pixels

Height                                   : 800 pixels

Display aspect ratio                     : 2.40:1

Frame rate mode                          : Constant

Frame rate                               : 23.976 (24000/1001) FPS

Color space                              : YUV

Chroma subsampling                       : 4:2:0

Bit depth                                : 10 bits

Bits/(Pixel*Frame)                       : 0.148

Stream size                              : 4.98 GiB (84%)

Writing library                          : x265 3.3+1-g554c887ac:[Windows][MSVC 1924][64 bit] 10bit

Encoding settings                        : cpuid=1111039 / frame-threads=3 / numa-pools=12 / wpp / no-pmode / no-pme / no-psnr / no-ssim / log-level=2 / input-csp=1 / input-res=1920x800 / interlace=0 / total-frames=187657 / level-idc=0 / high-tier=1 / uhd-bd=0 / ref=4 / no-allow-non-conformance / no-repeat-headers / annexb / no-aud / no-hrd / info / hash=0 / no-temporal-layers / open-gop / min-keyint=23 / keyint=250 / gop-lookahead=0 / bframes=8 / b-adapt=2 / b-pyramid / bframe-bias=0 / rc-lookahead=80 / lookahead-slices=5 / scenecut=40 / hist-scenecut=0 / radl=0 / no-splice / no-intra-refresh / ctu=64 / min-cu-size=8 / rect / no-amp / max-tu-size=32 / tu-inter-depth=1 / tu-intra-depth=1 / limit-tu=0 / rdoq-level=2 / dynamic-rd=0.00 / no-ssim-rd / signhide / no-tskip / nr-intra=0 / nr-inter=0 / no-constrained-intra / strong-intra-smoothing / max-merge=3 / limit-refs=3 / limit-modes / me=3 / subme=3 / merange=57 / temporal-mvp / no-frame-dup / no-hme / weightp / no-weightb / no-analyze-src-pics / deblock=0:0 / sao / no-sao-non-deblock / rd=4 / selective-sao=4 / no-early-skip / rskip / no-fast-intra / no-tskip-fast / no-cu-lossless / no-b-intra / no-splitrd-skip / rdpenalty=0 / psy-rd=0.30 / psy-rdoq=1.00 / no-rd-refine / no-lossless / cbqpoffs=0 / crqpoffs=0 / rc=crf / crf=19.0 / qcomp=0.60 / qpstep=4 / stats-write=0 / stats-read=0 / ipratio=1.40 / pbratio=1.30 / aq-mode=3 / aq-strength=1.00 / cutree / zone-count=0 / no-strict-cbr / qg-size=32 / no-rc-grain / qpmax=69 / qpmin=0 / no-const-vbv / sar=0 / overscan=0 / videoformat=5 / range=0 / colorprim=2 / transfer=2 / colormatrix=2 / chromaloc=0 / display-window=0 / cll=0,0 / min-luma=0 / max-luma=1023 / log2-max-poc-lsb=8 / vui-timing-info / vui-hrd-info / slices=1 / no-opt-qp-pps / no-opt-ref-list-length-pps / no-multi-pass-opt-rps / scenecut-bias=0.05 / hist-threshold=0.01 / no-opt-cu-delta-qp / no-aq-motion / no-hdr10 / no-hdr10-opt / no-dhdr10-opt / no-idr-recovery-sei / analysis-reuse-level=0 / analysis-save-reuse-level=0 / analysis-load-reuse-level=0 / scale-factor=0 / refine-intra=0 / refine-inter=0 / refine-mv=1 / refine-ctu-distortion=0 / no-limit-sao / ctu-info=0 / no-lowpass-dct / refine-analysis-type=0 / copy-pic=1 / max-ausize-factor=1.0 / no-dynamic-refine / no-single-sei / no-hevc-aq / no-svt / no-field / qp-adaptation-range=1.00 / no-scenecut-aware-qpconformance-window-offsets / right=0 / bottom=0

Default                                  : Yes

Forced                                   : No



Audio

ID                                       : 2

Format                                   : AAC LC

Format/Info                              : Advanced Audio Codec Low Complexity

Codec ID                                 : A_AAC-2

Duration                                 : 2 h 10 min

Bit rate                                 : 870 kb/s

Channel(s)                               : 6 channels

Channel layout                           : C L R Ls Rs LFE

Sampling rate                            : 48.0 kHz

Frame rate                               : 46.875 FPS (1024 SPF)

Compression mode                         : Lossy

Delay relative to video                  : 9 ms

Stream size                              : 811 MiB (13%)

Language                                 : English

Default                                  : Yes

Forced                                   : No



Text #1

ID                                       : 3

Format                                   : PGS

Muxing mode                              : zlib

Codec ID                                 : S_HDMV/PGS

Codec ID/Info                            : Picture based subtitle format used on BDs/HD-DVDs

Duration                                 : 2 h 9 min

Bit rate                                 : 18.4 kb/s

Count of elements                        : 2062

Stream size                              : 17.0 MiB (0%)

Title                                    : SDH

Language                                 : English

Default                                  : No

Forced                                   : No



Text #2

ID                                       : 4

Format                                   : PGS

Muxing mode                              : zlib

Codec ID                                 : S_HDMV/PGS

Codec ID/Info                            : Picture based subtitle format used on BDs/HD-DVDs

Duration                                 : 2 h 8 min

Bit rate                                 : 14.8 kb/s

Count of elements                        : 1754

Stream size                              : 13.6 MiB (0%)

Language                                 : Bulgarian

Default                                  : No

Forced                                   : No



Text #3

ID                                       : 5

Format                                   : PGS

Muxing mode                              : zlib

Codec ID                                 : S_HDMV/PGS

Codec ID/Info                            : Picture based subtitle format used on BDs/HD-DVDs

Duration                                 : 2 h 8 min

Bit rate                                 : 14.4 kb/s

Count of elements                        : 1896

Stream size                              : 13.2 MiB (0%)

Title                                    : Cantonese

Language                                 : Chinese

Default                                  : No

Forced                                   : No



Text #4

ID                                       : 6

Format                                   : PGS

Muxing mode                              : zlib

Codec ID                                 : S_HDMV/PGS

Codec ID/Info                            : Picture based subtitle format used on BDs/HD-DVDs

Duration                                 : 2 h 8 min

Bit rate                                 : 15.6 kb/s

Count of elements                        : 1944

Stream size                              : 14.4 MiB (0%)

Title                                    : Mandarin Simplified

Language                                 : Chinese

Default                                  : No

Forced                                   : No



Text #5

ID                                       : 7

Format                                   : PGS

Muxing mode                              : zlib

Codec ID                                 : S_HDMV/PGS

Codec ID/Info                            : Picture based subtitle format used on BDs/HD-DVDs

Duration                                 : 2 h 8 min

Bit rate                                 : 14.7 kb/s

Count of elements                        : 2016

Stream size                              : 13.6 MiB (0%)

Title                                    : Mandarin Traditional

Language                                 : Chinese

Default                                  : No

Forced                                   : No



Text #6

ID                                       : 8

Format                                   : PGS

Muxing mode                              : zlib

Codec ID                                 : S_HDMV/PGS

Codec ID/Info                            : Picture based subtitle format used on BDs/HD-DVDs

Duration                                 : 2 h 8 min

Bit rate                                 : 13.4 kb/s

Count of elements                        : 2070

Stream size                              : 12.3 MiB (0%)

Language                                 : Estonian

Default                                  : No

Forced                                   : No



Text #7

ID                                       : 9

Format                                   : PGS

Muxing mode                              : zlib

Codec ID                                 : S_HDMV/PGS

Codec ID/Info                            : Picture based subtitle format used on BDs/HD-DVDs

Duration                                 : 2 h 8 min

Bit rate                                 : 14.4 kb/s

Count of elements                        : 1948

Stream size                              : 13.3 MiB (0%)

Language                                 : French

Default                                  : No

Forced                                   : No



Text #8

ID                                       : 10

Format                                   : PGS

Muxing mode                              : zlib

Codec ID                                 : S_HDMV/PGS

Codec ID/Info                            : Picture based subtitle format used on BDs/HD-DVDs

Duration                                 : 2 h 8 min

Bit rate                                 : 17.3 kb/s

Count of elements                        : 1892

Stream size                              : 15.9 MiB (0%)

Language                                 : Greek

Default                                  : No

Forced                                   : No



Text #9

ID                                       : 11

Format                                   : PGS

Muxing mode                              : zlib

Codec ID                                 : S_HDMV/PGS

Codec ID/Info                            : Picture based subtitle format used on BDs/HD-DVDs

Duration                                 : 2 h 8 min

Bit rate                                 : 14.9 kb/s

Count of elements                        : 1878

Stream size                              : 13.8 MiB (0%)

Language                                 : Hungarian

Default                                  : No

Forced                                   : No



Text #10

ID                                       : 12

Format                                   : PGS

Muxing mode                              : zlib

Codec ID                                 : S_HDMV/PGS

Codec ID/Info                            : Picture based subtitle format used on BDs/HD-DVDs

Duration                                 : 2 h 8 min

Bit rate                                 : 19.9 kb/s

Count of elements                        : 1992

Stream size                              : 18.3 MiB (0%)

Language                                 : Indonesian

Default                                  : No

Forced                                   : No



Text #11

ID                                       : 13

Format                                   : PGS

Muxing mode                              : zlib

Codec ID                                 : S_HDMV/PGS

Codec ID/Info                            : Picture based subtitle format used on BDs/HD-DVDs

Duration                                 : 2 h 8 min

Bit rate                                 : 11.4 kb/s

Count of elements                        : 1862

Stream size                              : 10.5 MiB (0%)

Language                                 : Korean

Default                                  : No

Forced                                   : No



Text #12

ID                                       : 14

Format                                   : PGS

Muxing mode                              : zlib

Codec ID                                 : S_HDMV/PGS

Codec ID/Info                            : Picture based subtitle format used on BDs/HD-DVDs

Duration                                 : 2 h 8 min

Bit rate                                 : 14.4 kb/s

Count of elements                        : 1868

Stream size                              : 13.2 MiB (0%)

Language                                 : Latvian

Default                                  : No

Forced                                   : No



Text #13

ID                                       : 15

Format                                   : PGS

Muxing mode                              : zlib

Codec ID                                 : S_HDMV/PGS

Codec ID/Info                            : Picture based subtitle format used on BDs/HD-DVDs

Duration                                 : 2 h 8 min

Bit rate                                 : 14.9 kb/s

Count of elements                        : 1896

Stream size                              : 13.7 MiB (0%)

Language                                 : Lithuanian

Default                                  : No

Forced                                   : No



Text #14

ID                                       : 16

Format                                   : PGS

Muxing mode                              : zlib

Codec ID                                 : S_HDMV/PGS

Codec ID/Info                            : Picture based subtitle format used on BDs/HD-DVDs

Duration                                 : 2 h 8 min

Bit rate                                 : 14.5 kb/s

Count of elements                        : 1806

Stream size                              : 13.3 MiB (0%)

Language                                 : Polish

Default                                  : No

Forced                                   : No



Text #15

ID                                       : 17

Format                                   : PGS

Muxing mode                              : zlib

Codec ID                                 : S_HDMV/PGS

Codec ID/Info                            : Picture based subtitle format used on BDs/HD-DVDs

Duration                                 : 2 h 8 min

Bit rate                                 : 16.4 kb/s

Count of elements                        : 1870

Stream size                              : 15.1 MiB (0%)

Title                                    : Brazilian

Language                                 : Portuguese

Default                                  : No

Forced                                   : No



Text #16

ID                                       : 18

Format                                   : PGS

Muxing mode                              : zlib

Codec ID                                 : S_HDMV/PGS

Codec ID/Info                            : Picture based subtitle format used on BDs/HD-DVDs

Duration                                 : 2 h 8 min

Bit rate                                 : 16.6 kb/s

Count of elements                        : 1874

Stream size                              : 15.3 MiB (0%)

Language                                 : Portuguese

Default                                  : No

Forced                                   : No



Text #17

ID                                       : 19

Format                                   : PGS

Muxing mode                              : zlib

Codec ID                                 : S_HDMV/PGS

Codec ID/Info                            : Picture based subtitle format used on BDs/HD-DVDs

Duration                                 : 2 h 8 min

Bit rate                                 : 14.5 kb/s

Count of elements                        : 1890

Stream size                              : 13.3 MiB (0%)

Language                                 : Romanian

Default                                  : No

Forced                                   : No



Text #18

ID                                       : 20

Format                                   : PGS

Muxing mode                              : zlib

Codec ID                                 : S_HDMV/PGS

Codec ID/Info                            : Picture based subtitle format used on BDs/HD-DVDs

Duration                                 : 2 h 8 min

Bit rate                                 : 15.0 kb/s

Count of elements                        : 2096

Stream size                              : 13.8 MiB (0%)

Language                                 : Russian

Default                                  : No

Forced                                   : No



Text #19

ID                                       : 21

Format                                   : PGS

Muxing mode                              : zlib

Codec ID                                 : S_HDMV/PGS

Codec ID/Info                            : Picture based subtitle format used on BDs/HD-DVDs

Duration                                 : 2 h 8 min

Bit rate                                 : 14.8 kb/s

Count of elements                        : 1866

Stream size                              : 13.7 MiB (0%)

Language                                 : Serbian

Default                                  : No

Forced                                   : No



Text #20

ID                                       : 22

Format                                   : PGS

Muxing mode                              : zlib

Codec ID                                 : S_HDMV/PGS

Codec ID/Info                            : Picture based subtitle format used on BDs/HD-DVDs

Duration                                 : 2 h 8 min

Bit rate                                 : 15.9 kb/s

Count of elements                        : 1860

Stream size                              : 14.6 MiB (0%)

Title                                    : Latin American

Language                                 : Spanish

Default                                  : No

Forced                                   : No



Text #21

ID                                       : 23

Format                                   : PGS

Muxing mode                              : zlib

Codec ID                                 : S_HDMV/PGS

Codec ID/Info                            : Picture based subtitle format used on BDs/HD-DVDs

Duration                                 : 2 h 8 min

Bit rate                                 : 16.2 kb/s

Count of elements                        : 1888

Stream size                              : 15.0 MiB (0%)

Language                                 : Thai

Default                                  : No

Forced                                   : No



Text #22

ID                                       : 24

Format                                   : PGS

Muxing mode                              : zlib

Codec ID                                 : S_HDMV/PGS

Codec ID/Info                            : Picture based subtitle format used on BDs/HD-DVDs

Duration                                 : 2 h 8 min

Bit rate                                 : 16.7 kb/s

Count of elements                        : 1892

Stream size                              : 15.4 MiB (0%)

Language                                 : Turkish

Default                                  : No

Forced                                   : No



Menu

00:00:00.000                             : en:Chapter 1

00:02:58.220                             : en:Chapter 2

00:06:21.172                             : en:Chapter 3

00:10:21.871                             : en:Chapter 4

00:14:27.992                             : en:Chapter 5

00:20:05.621                             : en:Chapter 6

00:22:47.783                             : en:Chapter 7

00:25:38.620                             : en:Chapter 8

00:30:46.803                             : en:Chapter 9

00:34:33.655                             : en:Chapter 10

00:40:32.263                             : en:Chapter 11

00:45:52.249                             : en:Chapter 12

00:50:15.471                             : en:Chapter 13

00:54:41.027                             : en:Chapter 14

00:59:01.246                             : en:Chapter 15

01:03:42.068                             : en:Chapter 16

01:07:06.063                             : en:Chapter 17

01:11:24.488                             : en:Chapter 18

01:14:38.932                             : en:Chapter 19

01:23:40.849                             : en:Chapter 20

01:29:17.727                             : en:Chapter 21

01:31:25.021                             : en:Chapter 22

01:36:37.666                             : en:Chapter 23

01:41:09.104                             : en:Chapter 24

01:46:42.312                             : en:Chapter 25

01:50:18.361                             : en:Chapter 26

01:54:16.683                             : en:Chapter 27

01:58:12.877                             : en:Chapter 28



Source:







Next movie:



Discussion

Comments 0

Post Your Comment

Files in this torrent

FILENAMESIZE
Harry Potter and the Deathly Hallows Part 2 (2011) [1080p x265 HEVC 10bit BluRay AAC 5.1] [Prof].mkv5.9 GB

Alternative Torrents for 'Harry Potter and Deathly Hallows Part HEVC bit BluRay AAC . Prof'.

There are no alternative torrents found.