The Invisible Man (2020) 720p Dual Audio [Hindi (clean) - English] X264 800MB BongRockers

Torrent Details

 The Invisible Man (2020) 720p Dual Audio [Hindi (clean) - English] x264 800MB BongRockers

NAME
The Invisible Man (2020) 720p Dual Audio [Hindi (clean) - English] x264 800MB BongRockers.torrent
CATEGORY
Movies
INFOHASH
964d2a2dec4f81c64c43bac4344c6ad521e819f8
SIZE
836 MB in 2 files
ADDED
Uploaded on 01-03-2020 by our crawler pet called "Spidey".
SWARM
0 seeders & 0 peers
RATING
No votes yet.

Please login to vote for this torrent.


Description



Visit Our Site https://hdwebmovies.live











Movie name :

The Invisible Man (2020) 720p Dual Audio [Hindi (clean) - English] x264 800MB BongRockers [HDWebMovies]

General 

Format version : Version 4 

File size : 836 MiB 

Duration : 1 h 53 min 

Overall bit rate mode : Variable 

Overall bit rate : 1 030 kb/s 

Movie name : www.HDWEbMovies.live 

Encoded date : UTC 2020-03-01 04:37:24 

Writing application : mkvmerge v31.0.0 ('Dolores In A Shoestand') 64-bit 

Writing library : libebml v1.3.6 + libmatroska v1.4.9 



Video 

ID : 1 

Format : AVC 

Format/Info : Advanced Video Codec 

Format profile : [email protected] 

Format settings : 1 Ref Frames 

Format settings, CABAC : No 

Format settings, Reference frames : 1 frame 

Format settings, GOP : M=1, N=24 

Codec ID : V_MPEG4/ISO/AVC 

Duration : 1 h 33 min 

Bit rate mode : Variable 

Bit rate : 974 kb/s 

Maximum bit rate : 1 499 kb/s 

Width : 1 280 pixels 

Height : 720 pixels 

Display aspect ratio : 16:9 

Frame rate mode : Constant 

Frame rate : 24.000 FPS 

Color space : YUV 

Chroma subsampling : 4:2:0 

Bit depth : 8 bits 

Scan type : Progressive 

Bits/(Pixel*Frame) : 0.044 

Stream size : 653 MiB (78%) 

Title : www.HDWEbMovies.live 

Default : Yes 

Forced : No 



Audio #1 

ID : 2 

Format : AAC LC 

Format/Info : Advanced Audio Codec Low Complexity 

Codec ID : A_AAC-2 

Duration : 1 h 53 min 

Bit rate : 119 kb/s 

Channel(s) : 2 channels 

Channel layout : L R 

Sampling rate : 48.0 kHz 

Frame rate : 46.875 FPS (1024 SPF) 

Compression mode : Lossy 

Delay relative to video : 80 ms 

Stream size : 96.8 MiB (12%) 

Title : www.HDWEbMovies.live 

Language : Hindi 

Default : Yes 

Forced : No 



Audio #2 

ID : 3 

Format : AAC LC 

Format/Info : Advanced Audio Codec Low Complexity 

Codec ID : A_AAC-2 

Duration : 1 h 52 min 

Bit rate : 104 kb/s 

Channel(s) : 2 channels 

Channel layout : L R 

Sampling rate : 48.0 kHz 

Frame rate : 46.875 FPS (1024 SPF) 

Compression mode : Lossy 

Delay relative to video : 80 ms 

Stream size : 83.6 MiB (10%) 

Title : www.HDWEbMovies.live 

Language : English 

Default : No 

Forced : No 

















Discussion

Comments 0

Post Your Comment

Files in this torrent

FILENAMESIZE
Join Now.txt198 B
www.HDWebMovies.live - The Invisible Man (2020) 720p Dual Audio [Hindi (clean) - English] x264 800MB BongRockers.mkv836.3 MB

Alternative Torrents for 'Invisible Man Dual Audio Hindi clean English MB BongRockers'.

TORRENT NAMEADDEDSIZESEEDSPEERSHEALTH
8/1/20202 GB2218298
8/9/20201.6 GB1762241
8/3/20201.5 GB1069120
8/3/20201.5 GB1050111
7/31/20201.1 GB850145
8/8/2020761 MB80190
7/31/20201.1 GB80089
8/8/20201.1 GB757227
Today311 MB728120
Yesterday1.1 GB6571444
7/30/20201009 MB65162
8/12/2020916 MB630407
8/11/20202.9 GB533179
Today722 MB458350
8/1/2020968 MB34376