Birds Of Prey And The Fantabulous Emancipation Of One Harley Quinn (2020) English 720p HC HDRip X264 AAC 600MB BongRockers

Torrent Details

Birds of Prey And the Fantabulous Emancipation of One Harley Quinn (2020) English 720p HC HDRip x264 AAC 600MB BongRockers

NAME
Birds of Prey And the Fantabulous Emancipation of One Harley Quinn (2020) English 720p HC HDRip x264 AAC 600MB BongRockers.torrent
CATEGORY
Movies
INFOHASH
ba681ae5a3b91e29517b25ddfdf840c9b8e291f9
SIZE
594 MB in 1 file
ADDED
Uploaded on 05-03-2020 by our crawler pet called "Spidey".
SWARM
0 seeders & 0 peers
RATING
No votes yet.

Please login to vote for this torrent.


Description



Visit Our Site https://hdwebmovies.pw











Movie name :

Birds of Prey And the Fantabulous Emancipation of One Harley Quinn (2020) English 720p HC HDRip x264 AAC 600MB BongRockers [HDWebMovies]

General 

Format : Matroska 

Format version : Version 4 

File size : 594 MiB 

Duration : 1 h 48 min 

Overall bit rate : 763 kb/s 

Encoded date : UTC 2020-03-05 16:25:59 

Writing application : mkvmerge v31.0.0 ('Dolores In A Shoestand') 64-bit 

Writing library : libebml v1.3.6 + libmatroska v1.4.9 / Lavf58.29.100 



Video 

ID : 1 

Format : AVC 

Format/Info : Advanced Video Codec 

Format profile : [email protected] 

Format settings : CABAC / 4 Ref Frames 

Format settings, CABAC : Yes 

Format settings, Reference frames : 4 frames 

Codec ID : V_MPEG4/ISO/AVC 

Duration : 1 h 48 min 

Bit rate : 673 kb/s 

Width : 1 280 pixels 

Height : 536 pixels 

Display aspect ratio : 2.40:1 

Frame rate mode : Variable 

Frame rate : 23.976 FPS 

Color space : YUV 

Chroma subsampling : 4:2:0 

Bit depth : 8 bits 

Scan type : Progressive 

Bits/(Pixel*Frame) : 0.041 

Stream size : 518 MiB (87%) 

Writing library : x264 core 152 r2854 e9a5903  

Default : Yes 

Forced : No 



Audio 

ID : 2 

Format : AAC LC 

Format/Info : Advanced Audio Codec Low Complexity 

Codec ID : A_AAC-2 

Duration : 1 h 48 min 

Bit rate : 96.0 kb/s 

Channel(s) : 1 channel 

Channel layout : C 

Sampling rate : 44.1 kHz 

Frame rate : 43.066 FPS (1024 SPF) 

Compression mode : Lossy 

Delay relative to video : -86 ms 

Stream size : 74.9 MiB (13%) 

Title : Stereo 

Writing library : Lavc58.54.100 libfdk_aac 

Language : English 

Default : Yes 

Forced : No 

















Discussion

Comments 0

Post Your Comment

Files in this torrent

FILENAMESIZE
Birds of Prey And the Fantabulous Emancipation of One Harley Quinn (2020) English 720p HC HDRip x264 AAC 600MB BongRockers.mkv594.1 MB

Alternative Torrents for 'Birds of Prey And Fantabulous Emancipation of One Harley Quinn English AAC MB BongRockers'.

TORRENT NAMEADDEDSIZESEEDSPEERSHEALTH
9/21/20201.3 GB1923127
9/11/20204.1 GB172741
9/21/2020697 MB130396
9/19/20201.3 GB126921
9/19/2020700 MB95929
9/23/20201.8 GB926468
9/18/2020892 MB820150
9/22/2020797 MB807733
9/23/2020328 MB768347
9/20/20201.4 GB69318
9/12/2020696 MB68912
9/12/20201.3 GB68814
9/14/20201.3 GB67225
9/18/20201.8 GB66097
9/18/20203.2 GB65321