18+Once Upon A Time In Deadwood 2019 HDRip XviD AC3 With Sample

Torrent Details


18+Once Upon A Time In Deadwood<span style=color:#777> 2019</span> HDRip XviD AC3 With Sample

NAME
18+Once Upon A Time In Deadwood 2019 HDRip XviD AC3 With Sample.torrent
CATEGORY
Movies
INFOHASH
d67c47f0c5331c9389ce211f60d4e6a6e35b1277
SIZE
1.1 GB in 3 files
ADDED
Uploaded on 10-03-2020 by our crawler pet called "Spidey".
SWARM
0 seeders & 1 peers
RATING
No votes yet.

Please login to vote for this torrent.


Description

Quote:



******************************Thumbnail:**********************







******************************Screenshots:********************



screenshot 1



screenshot 2



screenshot 3



screenshot 4



screenshot 5



screenshot 6



screenshot 7



screenshot 8



screenshot 9



******************************Poster:**********************









******************************************************



18+Once.Upon.A.Time.In.Deadwood.2019.HDRip.XviD.AC3.With.Sample.LLG.mp4

Format                                   : MPEG-4

Format profile                           : Base Media

Codec ID                                 : isom (isom/iso2/avc1/mp41)

File size                                : 1.00 GiB

Duration                                 : 1 h 25 min

Overall bit rate mode                    : Variable

Overall bit rate                         : 1 681 kb/s





Video

ID                                       : 1

Format                                   : AVC

Format/Info                              : Advanced Video Codec

Format profile                           : [email protected]

Format settings                          : CABAC / 1 Ref Frames

Format settings, CABAC                   : Yes

Format settings, Reference frames        : 1 frame

Codec ID                                 : avc1

Codec ID/Info                            : Advanced Video Coding

Duration                                 : 1 h 25 min

Bit rate mode                            : Variable

Bit rate                                 : 1 485 kb/s

Maximum bit rate                         : 4 500 kb/s

Width                                    : 720 pixels

Height                                   : 404 pixels

Display aspect ratio                     : 16:9

Frame rate mode                          : Constant

Frame rate                               : 23.976 (23976/1000) FPS

Color space                              : YUV

Chroma subsampling                       : 4:2:0

Bit depth                                : 8 bits

Scan type                                : Progressive

Bits/(Pixel*Frame)                       : 0.213

Stream size                              : 908 MiB (88%)





Audio

ID                                       : 2

Format                                   : AC-3

Format/Info                              : Audio Coding 3

Commercial name                          : Dolby Digital

Codec ID                                 : ac-3

Duration                                 : 1 h 25 min

Bit rate mode                            : Constant

Bit rate                                 : 192 kb/s

Channel(s)                               : 2 channels

Channel layout                           : L R

Sampling rate                            : 48.0 kHz

Frame rate                               : 31.250 FPS (1536 SPF)

Compression mode                         : Lossy

Stream size                              : 117 MiB (11%)

Language                                 : English

Service kind                             : Complete Main

Default                                  : Yes

Alternate group                          : 1











********************************************************

Discussion

Comments 0

Post Your Comment

Files in this torrent

FILENAMESIZE
18+Once.Upon.A.Time.In.Deadwood.2019.HDRip.XviD.AC3.With.Sample.LLG.mp41 GB
SAMPLE 2.ts25.2 MB
Sample.ts29.5 MB

Alternative Torrents for 'Once Upon Time Deadwood With Sample'.

TORRENT NAMEADDEDSIZESEEDSPEERSHEALTH
3/10/20201.1 GB01