Baghdad Central Season 1 Complete 720p HDTV X264 [i_c]

Torrent Details

Baghdad Central Season 1 Complete 720p HDTV x264 <span style=color:#fc9c6d>[i_c]</span>

NAME
Baghdad Central Season 1 Complete 720p HDTV x264 [i_c].torrent
CATEGORY
Television
INFOHASH
6e7a6f8a2aae1e18a3a67a857075abdda2b608eb
SIZE
2.5 GB in 6 files
ADDED
Uploaded on 16-03-2020 by our crawler pet called "Spidey".
SWARM
0 seeders & 0 peers
RATING
No votes yet.

Please login to vote for this torrent.


Description





















October 2003 and Baghdad has been occupied by American forces for six months; but the

disbandment of the Iraqi army, the police and civil leadership in the aftermath of the

invasion means there is no one in charge and no effective rule of law.

In the midst of this chaos, crime and paranoia, Iraqi ex-policeman Muhsin al-Khafaji has

lost everything and is battling daily to keep himself and his sick daughter, Mrouj, safe.

But when he learns that his estranged elder daughter Sawsan is missing Khafaji is forced

into a desperate search to find her.









Click here to view source files









English subtitles included









Episode 01 , Episode 02 , Episode 03 , Episode 04 , Episode 05 , Episode 06 ,









Complete name                            : Baghdad Central S01e01 Episode 1.m4v

Format                                   : MPEG-4

Format profile                           : Base Media / Version 2

Codec ID                                 : mp42 (isom/iso2/avc1/mp41)

File size                                : 462 MiB

Duration                                 : 46 min 48 s

Overall bit rate mode                    : Variable

Overall bit rate                         : 1 381 kb/s

Encoded date                             : UTC 2020-03-14 07:33:19

Tagged date                              : UTC 2020-03-14 07:33:19

Writing application                      : HandBrake 1.3.1 2020010400









ID                                       : 1

Format                                   : AVC

Format/Info                              : Advanced Video Codec

Format profile                           : [email protected]

Format settings                          : CABAC / 4 Ref Frames

Format settings, CABAC                   : Yes

Format settings, Reference frames        : 4 frames

Codec ID                                 : avc1

Codec ID/Info                            : Advanced Video Coding

Duration                                 : 46 min 48 s

Bit rate                                 : 1 214 kb/s

Width                                    : 1 280 pixels

Height                                   : 534 pixels

Display aspect ratio                     : 2.40:1

Frame rate mode                          : Constant

Frame rate                               : 25.000 FPS

Color space                              : YUV

Chroma subsampling                       : 4:2:0

Bit depth                                : 8 bits

Scan type                                : Progressive

Bits/(Pixel*Frame)                       : 0.071

Stream size                              : 406 MiB (88%)

Writing library                          : x264 core 157 r2935 545de2f

Encoding settings                        : cabac=1 / ref=2 / deblock=1:0:0 / analyse=0x1:0x111 / me=hex / subme=6 / psy=1 / psy_rd=1.00:0.00 / mixed_ref=1 / me_range=16 / chroma_me=1 / trellis=1 / 8x8dct=0 / cqm=0 / deadzone=21,11 / fast_pskip=1 / chroma_qp_offset=-2 / threads=17 / lookahead_threads=2 / sliced_threads=0 / nr=0 / decimate=1 / interlaced=0 / bluray_compat=0 / constrained_intra=0 / bframes=3 / b_pyramid=2 / b_adapt=1 / b_bias=0 / direct=1 / weightb=1 / open_gop=0 / weightp=1 / keyint=250 / keyint_min=25 / scenecut=40 / intra_refresh=0 / rc_lookahead=30 / rc=crf / mbtree=1 / crf=21.0 / qcomp=0.60 / qpmin=0 / qpmax=69 / qpstep=4 / vbv_maxrate=14000 / vbv_bufsize=14000 / crf_max=0.0 / nal_hrd=none / filler=0 / ip_ratio=1.40 / aq=1:1.00

Encoded date                             : UTC 2020-03-14 07:33:19

Tagged date                              : UTC 2020-03-14 07:33:19

Color range                              : Limited

Color primaries                          : BT.709

Transfer characteristics                 : BT.709

Matrix coefficients                      : BT.709

Codec configuration box                  : avcC









ID                                       : 2

Format                                   : AAC LC

Format/Info                              : Advanced Audio Codec Low Complexity

Codec ID                                 : mp4a-40-2

Duration                                 : 46 min 48 s

Bit rate mode                            : Constant

Bit rate                                 : 161 kb/s

Channel(s)                               : 2 channels

Channel layout                           : L R

Sampling rate                            : 48.0 kHz

Frame rate                               : 46.875 FPS (1024 SPF)

Compression mode                         : Lossy

Stream size                              : 53.7 MiB (12%)

Title                                    : Stereo

Language                                 : English

Default                                  : Yes

Alternate group                          : 1

Encoded date                             : UTC 2020-03-14 07:33:19

Tagged date                              : UTC 2020-03-14 07:33:19

Discussion

Comments 0

Post Your Comment

Files in this torrent

FILENAMESIZE
Baghdad Central S01e01 Episode 1.m4v462.2 MB
Baghdad Central S01e02 Episode 2.m4v404.6 MB
Baghdad Central S01e03 Episode 3.m4v430.6 MB
Baghdad Central S01E04 Episode 4.m4v382 MB
Baghdad Central S01E05 Episode 5.m4v428.2 MB
Baghdad Central S01e06 Episode 6.m4v472.8 MB

Alternative Torrents for 'Baghdad Central Season Complete'.

TORRENT NAMEADDEDSIZESEEDSPEERSHEALTH
8/28/20202.4 GB00
3/16/20202.5 GB00