Teenage Mutant Ninja Turtles (2014) [1080p X265 HEVC 10bit BluRay AAC 7.1] [Prof]

Torrent Details

Teenage Mutant Ninja Turtles (2014) [1080p x265 HEVC 10bit BluRay AAC 7.1] [Prof]

NAME
Teenage Mutant Ninja Turtles (2014) [1080p x265 HEVC 10bit BluRay AAC 7.1] [Prof].torrent
CATEGORY
Movies
INFOHASH
bb546e5d10ae19896d1dd341831df869a9161acc
SIZE
8.7 GB in 1 file
ADDED
Uploaded on 19-03-2020 by our crawler pet called "Spidey".
SWARM
0 seeders & 1 peers
RATING
No votes yet.

Please login to vote for this torrent.


Description













Format                                   : Matroska

Format version                           : Version 4

File size                                : 8.66 GiB

Duration                                 : 1 h 41 min

Overall bit rate                         : 12.2 Mb/s

Movie name                               : Teenage Mutant Ninja Turtles

Encoded date                             : UTC 2020-03-18 22:16:48

Writing application                      : mkvmerge v43.0.0 ('The Quartermaster') 64-bit

Writing library                          : libebml v1.3.10 + libmatroska v1.5.2



Video

ID                                       : 1

Format                                   : HEVC

Format/Info                              : High Efficiency Video Coding

Format profile                           : Main [email protected]@Main

Codec ID                                 : V_MPEGH/ISO/HEVC

Duration                                 : 1 h 41 min

Bit rate                                 : 10.8 Mb/s

Width                                    : 1 920 pixels

Height                                   : 800 pixels

Display aspect ratio                     : 2.40:1

Frame rate mode                          : Constant

Frame rate                               : 23.976 (24000/1001) FPS

Color space                              : YUV

Chroma subsampling                       : 4:2:0

Bit depth                                : 10 bits

Bits/(Pixel*Frame)                       : 0.294

Stream size                              : 7.65 GiB (88%)

Writing library                          : x265 3.3+1-g554c887ac:[Windows][MSVC 1924][64 bit] 10bit

Encoding settings                        : cpuid=1111039 / frame-threads=4 / numa-pools=24 / wpp / no-pmode / no-pme / no-psnr / no-ssim / log-level=2 / input-csp=1 / input-res=1920x800 / interlace=0 / total-frames=145726 / level-idc=0 / high-tier=1 / uhd-bd=0 / ref=4 / no-allow-non-conformance / no-repeat-headers / annexb / no-aud / no-hrd / info / hash=0 / no-temporal-layers / open-gop / min-keyint=23 / keyint=250 / gop-lookahead=0 / bframes=8 / b-adapt=2 / b-pyramid / bframe-bias=0 / rc-lookahead=80 / lookahead-slices=5 / scenecut=40 / hist-scenecut=0 / radl=0 / no-splice / no-intra-refresh / ctu=64 / min-cu-size=8 / rect / no-amp / max-tu-size=32 / tu-inter-depth=1 / tu-intra-depth=1 / limit-tu=0 / rdoq-level=2 / dynamic-rd=0.00 / no-ssim-rd / signhide / no-tskip / nr-intra=0 / nr-inter=0 / no-constrained-intra / strong-intra-smoothing / max-merge=3 / limit-refs=3 / limit-modes / me=3 / subme=3 / merange=57 / temporal-mvp / no-frame-dup / no-hme / weightp / no-weightb / no-analyze-src-pics / deblock=0:0 / sao / no-sao-non-deblock / rd=4 / selective-sao=4 / no-early-skip / rskip / no-fast-intra / no-tskip-fast / no-cu-lossless / no-b-intra / no-splitrd-skip / rdpenalty=0 / psy-rd=2.00 / psy-rdoq=1.00 / no-rd-refine / no-lossless / cbqpoffs=0 / crqpoffs=0 / rc=crf / crf=18.0 / qcomp=0.60 / qpstep=4 / stats-write=0 / stats-read=0 / ipratio=1.40 / pbratio=1.30 / aq-mode=3 / aq-strength=0.80 / cutree / zone-count=0 / no-strict-cbr / qg-size=32 / no-rc-grain / qpmax=69 / qpmin=0 / no-const-vbv / sar=0 / overscan=0 / videoformat=5 / range=0 / colorprim=2 / transfer=2 / colormatrix=2 / chromaloc=0 / display-window=0 / cll=0,0 / min-luma=0 / max-luma=1023 / log2-max-poc-lsb=8 / vui-timing-info / vui-hrd-info / slices=1 / no-opt-qp-pps / no-opt-ref-list-length-pps / no-multi-pass-opt-rps / scenecut-bias=0.05 / hist-threshold=0.01 / no-opt-cu-delta-qp / no-aq-motion / no-hdr10 / no-hdr10-opt / no-dhdr10-opt / no-idr-recovery-sei / analysis-reuse-level=0 / analysis-save-reuse-level=0 / analysis-load-reuse-level=0 / scale-factor=0 / refine-intra=0 / refine-inter=0 / refine-mv=1 / refine-ctu-distortion=0 / no-limit-sao / ctu-info=0 / no-lowpass-dct / refine-analysis-type=0 / copy-pic=1 / max-ausize-factor=1.0 / no-dynamic-refine / no-single-sei / no-hevc-aq / no-svt / no-field / qp-adaptation-range=1.00 / no-scenecut-aware-qpconformance-window-offsets / right=0 / bottom=0

Default                                  : Yes

Forced                                   : No



Audio

ID                                       : 2

Format                                   : AAC LC

Format/Info                              : Advanced Audio Codec Low Complexity

Codec ID                                 : A_AAC-2

Duration                                 : 1 h 41 min

Bit rate                                 : 1 302 kb/s

Channel(s)                               : 8 channels

Channel layout                           : C L R Ls Rs Lb Rb LFE

Sampling rate                            : 48.0 kHz

Frame rate                               : 46.875 FPS (1024 SPF)

Compression mode                         : Lossy

Delay relative to video                  : 9 ms

Stream size                              : 943 MiB (11%)

Language                                 : English

Default                                  : Yes

Forced                                   : No



Text #1

ID                                       : 3

Format                                   : PGS

Muxing mode                              : zlib

Codec ID                                 : S_HDMV/PGS

Codec ID/Info                            : Picture based subtitle format used on BDs/HD-DVDs

Duration                                 : 1 h 40 min

Bit rate                                 : 30.4 kb/s

Count of elements                        : 1972

Stream size                              : 21.8 MiB (0%)

Language                                 : Danish

Default                                  : No

Forced                                   : No



Text #2

ID                                       : 4

Format                                   : PGS

Muxing mode                              : zlib

Codec ID                                 : S_HDMV/PGS

Codec ID/Info                            : Picture based subtitle format used on BDs/HD-DVDs

Duration                                 : 1 h 40 min

Bit rate                                 : 38.4 kb/s

Count of elements                        : 2702

Stream size                              : 27.6 MiB (0%)

Language                                 : German

Default                                  : No

Forced                                   : No



Text #3

ID                                       : 5

Format                                   : PGS

Muxing mode                              : zlib

Codec ID                                 : S_HDMV/PGS

Codec ID/Info                            : Picture based subtitle format used on BDs/HD-DVDs

Duration                                 : 1 h 14 min

Bit rate                                 : 588 b/s

Count of elements                        : 44

Stream size                              : 323 KiB (0%)

Language                                 : German

Default                                  : No

Forced                                   : No



Text #4

ID                                       : 6

Format                                   : PGS

Muxing mode                              : zlib

Codec ID                                 : S_HDMV/PGS

Codec ID/Info                            : Picture based subtitle format used on BDs/HD-DVDs

Duration                                 : 1 h 32 min

Bit rate                                 : 39.1 kb/s

Count of elements                        : 2604

Stream size                              : 26.0 MiB (0%)

Language                                 : English

Default                                  : No

Forced                                   : No



Text #5

ID                                       : 7

Format                                   : PGS

Muxing mode                              : zlib

Codec ID                                 : S_HDMV/PGS

Codec ID/Info                            : Picture based subtitle format used on BDs/HD-DVDs

Duration                                 : 35 min 13 s

Bit rate                                 : 298 b/s

Count of elements                        : 18

Stream size                              : 77.0 KiB (0%)

Language                                 : English

Default                                  : No

Forced                                   : No



Text #6

ID                                       : 8

Format                                   : PGS

Muxing mode                              : zlib

Codec ID                                 : S_HDMV/PGS

Codec ID/Info                            : Picture based subtitle format used on BDs/HD-DVDs

Duration                                 : 1 h 40 min

Bit rate                                 : 34.2 kb/s

Count of elements                        : 2356

Stream size                              : 24.5 MiB (0%)

Language                                 : Spanish

Default                                  : No

Forced                                   : No



Text #7

ID                                       : 9

Format                                   : PGS

Muxing mode                              : zlib

Codec ID                                 : S_HDMV/PGS

Codec ID/Info                            : Picture based subtitle format used on BDs/HD-DVDs

Duration                                 : 1 h 14 min

Bit rate                                 : 630 b/s

Count of elements                        : 42

Stream size                              : 343 KiB (0%)

Language                                 : Spanish

Default                                  : No

Forced                                   : No



Text #8

ID                                       : 10

Format                                   : PGS

Muxing mode                              : zlib

Codec ID                                 : S_HDMV/PGS

Codec ID/Info                            : Picture based subtitle format used on BDs/HD-DVDs

Duration                                 : 1 h 40 min

Bit rate                                 : 27.9 kb/s

Count of elements                        : 2458

Stream size                              : 20.0 MiB (0%)

Language                                 : French

Default                                  : No

Forced                                   : No



Text #9

ID                                       : 11

Format                                   : PGS

Muxing mode                              : zlib

Codec ID                                 : S_HDMV/PGS

Codec ID/Info                            : Picture based subtitle format used on BDs/HD-DVDs

Duration                                 : 1 h 14 min

Bit rate                                 : 430 b/s

Count of elements                        : 38

Stream size                              : 234 KiB (0%)

Language                                 : French

Default                                  : No

Forced                                   : No



Text #10

ID                                       : 12

Format                                   : PGS

Muxing mode                              : zlib

Codec ID                                 : S_HDMV/PGS

Codec ID/Info                            : Picture based subtitle format used on BDs/HD-DVDs

Duration                                 : 1 h 40 min

Bit rate                                 : 29.1 kb/s

Count of elements                        : 2638

Stream size                              : 20.8 MiB (0%)

Language                                 : Hindi

Default                                  : No

Forced                                   : No



Text #11

ID                                       : 13

Format                                   : PGS

Muxing mode                              : zlib

Codec ID                                 : S_HDMV/PGS

Codec ID/Info                            : Picture based subtitle format used on BDs/HD-DVDs

Duration                                 : 1 h 14 min

Bit rate                                 : 575 b/s

Count of elements                        : 44

Stream size                              : 316 KiB (0%)

Language                                 : Hindi

Default                                  : No

Forced                                   : No



Text #12

ID                                       : 14

Format                                   : PGS

Muxing mode                              : zlib

Codec ID                                 : S_HDMV/PGS

Codec ID/Info                            : Picture based subtitle format used on BDs/HD-DVDs

Duration                                 : 1 h 40 min

Bit rate                                 : 33.8 kb/s

Count of elements                        : 2244

Stream size                              : 24.3 MiB (0%)

Language                                 : Italian

Default                                  : No

Forced                                   : No



Text #13

ID                                       : 15

Format                                   : PGS

Muxing mode                              : zlib

Codec ID                                 : S_HDMV/PGS

Codec ID/Info                            : Picture based subtitle format used on BDs/HD-DVDs

Duration                                 : 1 h 18 min

Bit rate                                 : 688 b/s

Count of elements                        : 46

Stream size                              : 396 KiB (0%)

Language                                 : Italian

Default                                  : No

Forced                                   : No



Text #14

ID                                       : 16

Format                                   : PGS

Muxing mode                              : zlib

Codec ID                                 : S_HDMV/PGS

Codec ID/Info                            : Picture based subtitle format used on BDs/HD-DVDs

Duration                                 : 1 h 40 min

Bit rate                                 : 28.6 kb/s

Count of elements                        : 1912

Stream size                              : 20.5 MiB (0%)

Language                                 : Dutch

Default                                  : No

Forced                                   : No



Text #15

ID                                       : 17

Format                                   : PGS

Muxing mode                              : zlib

Codec ID                                 : S_HDMV/PGS

Codec ID/Info                            : Picture based subtitle format used on BDs/HD-DVDs

Duration                                 : 1 h 40 min

Bit rate                                 : 30.4 kb/s

Count of elements                        : 2268

Stream size                              : 21.8 MiB (0%)

Language                                 : Norwegian

Default                                  : No

Forced                                   : No



Text #16

ID                                       : 18

Format                                   : PGS

Muxing mode                              : zlib

Codec ID                                 : S_HDMV/PGS

Codec ID/Info                            : Picture based subtitle format used on BDs/HD-DVDs

Duration                                 : 1 h 40 min

Bit rate                                 : 34.1 kb/s

Count of elements                        : 2636

Stream size                              : 24.5 MiB (0%)

Language                                 : Finnish

Default                                  : No

Forced                                   : No



Text #17

ID                                       : 19

Format                                   : PGS

Muxing mode                              : zlib

Codec ID                                 : S_HDMV/PGS

Codec ID/Info                            : Picture based subtitle format used on BDs/HD-DVDs

Duration                                 : 1 h 40 min

Bit rate                                 : 31.7 kb/s

Count of elements                        : 2268

Stream size                              : 22.7 MiB (0%)

Language                                 : Swedish

Default                                  : No

Forced                                   : No



Text #18

ID                                       : 20

Format                                   : PGS

Muxing mode                              : zlib

Codec ID                                 : S_HDMV/PGS

Codec ID/Info                            : Picture based subtitle format used on BDs/HD-DVDs

Duration                                 : 1 h 33 min

Bit rate                                 : 48.8 kb/s

Count of elements                        : 3438

Stream size                              : 32.5 MiB (0%)

Language                                 : English

Default                                  : No

Forced                                   : No



Menu

00:00:00.000                             : en:Chapter 01

00:02:42.287                             : en:Chapter 02

00:06:00.485                             : en:Chapter 03

00:11:51.544                             : en:Chapter 04

00:16:01.835                             : en:Chapter 05

00:22:02.946                             : en:Chapter 06

00:28:22.784                             : en:Chapter 07

00:34:01.831                             : en:Chapter 08

00:38:04.031                             : en:Chapter 09

00:42:10.110                             : en:Chapter 10

00:48:36.413                             : en:Chapter 11

00:55:46.092                             : en:Chapter 12

01:00:44.265                             : en:Chapter 13

01:07:46.604                             : en:Chapter 14

01:15:30.359                             : en:Chapter 15

01:24:10.795                             : en:Chapter 16

01:30:17.036                             : en:Chapter 17

01:34:13.564                             : en:Chapter 18



Source:







Coming soon:



4k UHD



Fantastic Beasts and Where to Find Them

Ex Machina

Fury

Get Out

Guardians of the Galaxy



1080p



Pirates of the Caribbean: Dead Men Tell No Tales

This is the End

TMNT: Out of the Shadows

The Prestige

The Departed

The Pianist



TV



Last Week Tonight (ongoing)

Workaholics S03



Anime



BTOOOM!

Tales of Vesperia: The First Strike

And You Thought There Was Never a Girl Online?

Discussion

Comments 0

Post Your Comment

Files in this torrent

FILENAMESIZE
Teenage Mutant Ninja Turtles (2014) [1080p x265 HEVC 10bit BluRay AAC 7.1] [Prof].mkv8.7 GB

Alternative Torrents for 'Teenage Mutant Ninja Turtles HEVC bit BluRay AAC . Prof'.

There are no alternative torrents found.