1917 2019 BDREMUX 1080p SeleZen

Torrent Details


1917 2019 BDREMUX 1080p<span style=color:#fc9c6d> seleZen</span>

NAME
1917 2019 BDREMUX 1080p seleZen.torrent
CATEGORY
Movies
INFOHASH
7c915026ac81ff549789fe78f419978f8094ed4b
SIZE
31.5 GB in 1 file
ADDED
Uploaded on 24-03-2020 by our crawler pet called "Spidey".
SWARM
0 seeders & 0 peers
RATING
No votes yet.

Please login to vote for this torrent.


Description

Информация о фильме

Название: 1917

Оригинальное название: 1917

Год выхода: 2019

Жанр: Военный, боевик, история, драма

Режиссер: Сэм Мендес

В ролях: Джордж МакКэй, Дин-Чарльз Чепмен, Марк Стронг, Эндрю Скотт, Ричард Мэдден, Клэр Дюбюрк, Колин Фёрт, Бенедикт Камбербэтч, Дэниэл Мейс, Эдриан Скарборо







О фильме: 6 апреля 1917 года, разгар Первой мировой войны, Западный фронт на севере Франции. Британский генерал поручает капралу Блэйку и его сослуживцу смертельно опасную миссию. Они должны пересечь вражескую территорию, вроде бы оставленную германскими войсками, и доставить приказ об отмене наступления во 2-й батальон Девонширского полка, иначе 1600 солдат попадут в ловушку противника, в том числе и брат Блэйка.



Страна: Великобритания, США, Индия, Испания, Канада

Студия: Amblin Partners, DreamWorks SKG, Neal Street Productions, New Republic Pictures

Продолжительность: 01:58:58

Перевод: Дублированный | iTunes



Качество: BDRemux 1080p

Видео: MPEG-4 AVC, 1920x1080, 33.2 Mbit/s, 23.976 fps

Аудио #01: 48 kHz, AC3, 5.1, 384 Kbps | iTunes | RUS |

Аудио #02: 48 kHz, TrueHD, 7.1, 3810 Kbps | Оригинал | ENG |

Аудио #03: 48 kHz, AC3, 5.1, 448 Kbps | Оригинал | ENG |

Субтитры: Русские (Forced, Full), английские







MIGeneral

Unique ID : 339464064455831808191616412446451488293 (0xFF626692D37B6CA16075FAE92D7AD625)

Complete name : E:Video111Backup1917.2019.BDREMUX.1080p.seleZen.mkv

Format : Matroska

Format version : Version 4

File size : 31.5 GiB

Duration : 1 h 58 min

Overall bit rate mode : Variable

Overall bit rate : 38.0 Mb/s

Movie name : 1917 2019 from селезень

Encoded date : UTC 2020-03-24 18:27:39

Writing application : mkvmerge v40.0.0 ('Old Town Road + Pony') 64-bit

Writing library : libebml v1.3.9 + libmatroska v1.5.2



Video

ID : 1

Format : AVC

Format/Info : Advanced Video Codec

Format profile : [email protected]

Format settings : CABAC / 4 Ref Frames

Format settings, CABAC : Yes

Format settings, Reference : 4 frames

Codec ID : V_MPEG4/ISO/AVC

Duration : 1 h 58 min

Bit rate mode : Variable

Bit rate : 33.2 Mb/s

Maximum bit rate : 37.2 Mb/s

Width : 1 920 pixels

Height : 1 080 pixels

Display aspect ratio : 16:9

Frame rate mode : Constant

Frame rate : 23.976 (24000/1001) FPS

Color space : YUV

Chroma subsampling : 4:2:0

Bit depth : 8 bits

Scan type : Progressive

Bits/(Pixel*Frame) : 0.669

Stream size : 27.6 GiB (88%)

Language : English

Default : Yes

Forced : No



Audio #1

ID : 2

Format : AC-3

Format/Info : Audio Coding 3

Commercial name : Dolby Digital

Codec ID : A_AC3

Duration : 1 h 58 min

Bit rate mode : Constant

Bit rate : 384 kb/s

Channel(s) : 6 channels

Channel layout : L R C LFE Ls Rs

Sampling rate : 48.0 kHz

Frame rate : 31.250 FPS (1536 SPF)

Compression mode : Lossy

Stream size : 327 MiB (1%)

Title : iTunes

Language : Russian

Service kind : Complete Main

Default : Yes

Forced : Yes



Audio #2

ID : 3

Format : MLP FBA 16-ch

Format/Info : Meridian Lossless Packing FBA with 16-channel presentation

Commercial name : Dolby TrueHD with Dolby Atmos

Codec ID : A_TRUEHD

Duration : 1 h 58 min

Bit rate mode : Variable

Bit rate : 3 810 kb/s

Maximum bit rate : 7 158 kb/s

Channel(s) : 8 channels

Channel layout : L R C LFE Ls Rs Lb Rb

Sampling rate : 48.0 kHz

Frame rate : 1 200.000 FPS (40 SPF)

Compression mode : Lossless

Stream size : 3.17 GiB (10%)

Title : Original

Language : English

Default : No

Forced : No

Number of dynamic objects : 11

Bed channel count : 1 channel

Bed channel configuration : LFE



Audio #3

ID : 4

Format : AC-3

Format/Info : Audio Coding 3

Commercial name : Dolby Digital

Codec ID : A_AC3

Duration : 1 h 58 min

Bit rate mode : Constant

Bit rate : 448 kb/s

Channel(s) : 6 channels

Channel layout : L R C LFE Ls Rs

Sampling rate : 48.0 kHz

Frame rate : 31.250 FPS (1536 SPF)

Compression mode : Lossy

Stream size : 381 MiB (1%)

Language : English

Service kind : Complete Main

Default : No

Forced : No



Text #1

ID : 5

Format : UTF-8

Codec ID : S_TEXT/UTF8

Codec ID/Info : UTF-8 Plain Text

Duration : 1 h 31 min

Bit rate : 1 b/s

Count of elements : 25

Stream size : 1.30 KiB (0%)

Title : Forced

Language : Russian

Default : Yes

Forced : Yes



Text #2

ID : 6

Format : UTF-8

Codec ID : S_TEXT/UTF8

Codec ID/Info : UTF-8 Plain Text

Duration : 1 h 49 min

Bit rate : 57 b/s

Count of elements : 837

Stream size : 45.7 KiB (0%)

Title : Full

Language : Russian

Default : No

Forced : No



Text #3

ID : 7

Format : UTF-8

Codec ID : S_TEXT/UTF8

Codec ID/Info : UTF-8 Plain Text

Duration : 1 h 45 min

Bit rate : 35 b/s

Count of elements : 937

Stream size : 27.1 KiB (0%)

Title : Full

Language : English

Default : No

Forced : No



Text #4

ID : 8

Format : UTF-8

Codec ID : S_TEXT/UTF8

Codec ID/Info : UTF-8 Plain Text

Duration : 1 h 45 min

Bit rate : 40 b/s

Count of elements : 1100

Stream size : 31.2 KiB (0%)

Title : SDH

Language : English

Default : No

Forced : No



Menu

00:00:00.000 : en:Chapter 01

00:04:59.424 : en:Chapter 02

00:08:19.374 : en:Chapter 03

00:13:26.639 : en:Chapter 04

00:16:38.789 : en:Chapter 05

00:23:32.494 : en:Chapter 06

00:30:28.660 : en:Chapter 07

00:35:34.549 : en:Chapter 08

00:42:25.376 : en:Chapter 09

00:51:34.091 : en:Chapter 10

00:56:36.310 : en:Chapter 11

01:02:29.079 : en:Chapter 12

01:06:33.573 : en:Chapter 13

01:12:04.320 : en:Chapter 14

01:19:45.197 : en:Chapter 15

01:28:47.822 : en:Chapter 16

01:33:43.451 : en:Chapter 17

01:38:11.594 : en:Chapter 18

01:41:43.681 : en:Chapter 19

01:49:46.580 : en:Chapter 20



Релиз от:



Discussion

Comments 0

Post Your Comment

Files in this torrent

FILENAMESIZE
1917.2019.BDREMUX.1080p.seleZen.mkv31.5 GB

Alternative Torrents for '1917 2019 BDREMUX 1080p seleZen'.

TORRENT NAMEADDEDSIZESEEDSPEERSHEALTH
3/24/202031.5 GB00