1917 2019 BDREMUX 2160p HDR SeleZen

Torrent Details


1917 2019 BDREMUX 2160p HDR<span style=color:#fc9c6d> seleZen</span>

NAME
1917 2019 BDREMUX 2160p HDR seleZen.torrent
CATEGORY
Movies
INFOHASH
6097f87fe5a89df7d59049d275f692845283e08b
SIZE
62.2 GB in 1 file
ADDED
Uploaded on 24-03-2020 by our crawler pet called "Spidey".
SWARM
0 seeders & 0 peers
RATING
No votes yet.

Please login to vote for this torrent.


Description

Информация о фильме

Название: 1917

Оригинальное название: 1917

Год выхода: 2019

Жанр: Военный, боевик, история, драма

Режиссер: Сэм Мендес

В ролях: Джордж МакКэй, Дин-Чарльз Чепмен, Марк Стронг, Эндрю Скотт, Ричард Мэдден, Клэр Дюбюрк, Колин Фёрт, Бенедикт Камбербэтч, Дэниэл Мейс, Эдриан Скарборо







О фильме: 6 апреля 1917 года, разгар Первой мировой войны, Западный фронт на севере Франции. Британский генерал поручает капралу Блэйку и его сослуживцу смертельно опасную миссию. Они должны пересечь вражескую территорию, вроде бы оставленную германскими войсками, и доставить приказ об отмене наступления во 2-й батальон Девонширского полка, иначе 1600 солдат попадут в ловушку противника, в том числе и брат Блэйка.



Страна: Великобритания, США, Индия, Испания, Канада

Студия: Amblin Partners, DreamWorks SKG, Neal Street Productions, New Republic Pictures

Продолжительность: 01:58:59

Перевод: Дублированный | iTunes



Качество: BDRemux 2160p

Видео: 3840x2160 at 23.976 fps, MPEG-H HEVC HDR Video, 70100 kbps avg

Аудио #01: 48 kHz, AC3, 5.1, 384 Kbps | iTunes | RUS |

Аудио #02: 48 kHz, TrueHD, 7.1, 3810 Kbps | Оригинал | ENG |

Аудио #03: 48 kHz, AC3, 5.1, 448 Kbps | Оригинал | ENG |

Субтитры: Русские (Forced, Full), английские







MIGeneral

Unique ID : 334711022192189040682410814077821850268 (0xFBCEFF7F4380F87C65A4ADA63FB5129C)

Complete name : D:Video2221917.2019.BDREMUX.2160p.HDR.seleZen.mkv

Format : Matroska

Format version : Version 4

File size : 62.2 GiB

Duration : 1 h 58 min

Overall bit rate mode : Variable

Overall bit rate : 74.8 Mb/s

Movie name : 1917 2019 from селезень

Encoded date : UTC 2020-03-24 18:59:28

Writing application : mkvmerge v40.0.0 ('Old Town Road + Pony') 64-bit

Writing library : libebml v1.3.9 + libmatroska v1.5.2



Video

ID : 1

Format : HEVC

Format/Info : High Efficiency Video Coding

Format profile : Main [email protected]@High

HDR format : SMPTE ST 2094 App 4, Version 1, HDR10+ Profile B compatible

Codec ID : V_MPEGH/ISO/HEVC

Duration : 1 h 58 min

Bit rate : 70.1 Mb/s

Width : 3 840 pixels

Height : 2 160 pixels

Display aspect ratio : 16:9

Frame rate mode : Constant

Frame rate : 23.976 (24000/1001) FPS

Color space : YUV

Chroma subsampling : 4:2:0 (Type 2)

Bit depth : 10 bits

Bits/(Pixel*Frame) : 0.353

Stream size : 58.3 GiB (94%)

Language : English

Default : Yes

Forced : No

Color range : Limited

Color primaries : BT.2020

Transfer characteristics : PQ

Matrix coefficients : BT.2020 non-constant

Mastering display color pri : Display P3

Mastering display luminance : min: 0.0001 cd/m2, max: 1000 cd/m2

Maximum Content Light Level : 1000 cd/m2

Maximum Frame-Average Light : 168 cd/m2



Audio #1

ID : 2

Format : AC-3

Format/Info : Audio Coding 3

Commercial name : Dolby Digital

Codec ID : A_AC3

Duration : 1 h 58 min

Bit rate mode : Constant

Bit rate : 384 kb/s

Channel(s) : 6 channels

Channel layout : L R C LFE Ls Rs

Sampling rate : 48.0 kHz

Frame rate : 31.250 FPS (1536 SPF)

Compression mode : Lossy

Stream size : 327 MiB (1%)

Title : iTunes

Language : Russian

Service kind : Complete Main

Default : Yes

Forced : Yes



Audio #2

ID : 3

Format : MLP FBA 16-ch

Format/Info : Meridian Lossless Packing FBA with 16-channel presentation

Commercial name : Dolby TrueHD with Dolby Atmos

Codec ID : A_TRUEHD

Duration : 1 h 58 min

Bit rate mode : Variable

Bit rate : 3 810 kb/s

Maximum bit rate : 7 158 kb/s

Channel(s) : 8 channels

Channel layout : L R C LFE Ls Rs Lb Rb

Sampling rate : 48.0 kHz

Frame rate : 1 200.000 FPS (40 SPF)

Compression mode : Lossless

Stream size : 3.17 GiB (5%)

Title : Original

Language : English

Default : No

Forced : No

Number of dynamic objects : 11

Bed channel count : 1 channel

Bed channel configuration : LFE



Audio #3

ID : 4

Format : AC-3

Format/Info : Audio Coding 3

Commercial name : Dolby Digital

Codec ID : A_AC3

Duration : 1 h 58 min

Bit rate mode : Constant

Bit rate : 448 kb/s

Channel(s) : 6 channels

Channel layout : L R C LFE Ls Rs

Sampling rate : 48.0 kHz

Frame rate : 31.250 FPS (1536 SPF)

Compression mode : Lossy

Stream size : 381 MiB (1%)

Language : English

Service kind : Complete Main

Default : No

Forced : No



Text #1

ID : 5

Format : UTF-8

Codec ID : S_TEXT/UTF8

Codec ID/Info : UTF-8 Plain Text

Duration : 1 h 31 min

Bit rate : 1 b/s

Count of elements : 25

Stream size : 1.30 KiB (0%)

Title : Forced

Language : Russian

Default : Yes

Forced : Yes



Text #2

ID : 6

Format : UTF-8

Codec ID : S_TEXT/UTF8

Codec ID/Info : UTF-8 Plain Text

Duration : 1 h 49 min

Bit rate : 57 b/s

Count of elements : 837

Stream size : 45.7 KiB (0%)

Title : Full

Language : Russian

Default : No

Forced : No



Text #3

ID : 7

Format : UTF-8

Codec ID : S_TEXT/UTF8

Codec ID/Info : UTF-8 Plain Text

Duration : 1 h 45 min

Bit rate : 35 b/s

Count of elements : 937

Stream size : 27.1 KiB (0%)

Title : Full

Language : English

Default : No

Forced : No



Text #4

ID : 8

Format : UTF-8

Codec ID : S_TEXT/UTF8

Codec ID/Info : UTF-8 Plain Text

Duration : 1 h 45 min

Bit rate : 40 b/s

Count of elements : 1100

Stream size : 31.2 KiB (0%)

Title : SDH

Language : English

Default : No

Forced : No



Menu

00:00:00.000 : en:Глава 01

00:05:00.425 : en:Глава 02

00:08:20.375 : en:Глава 03

00:13:27.640 : en:Глава 04

00:16:39.790 : en:Глава 05

00:23:33.495 : en:Глава 06

00:30:29.661 : en:Глава 07

00:35:35.550 : en:Глава 08

00:42:26.377 : en:Глава 09

00:51:35.092 : en:Глава 10

00:56:37.311 : en:Глава 11

01:02:30.080 : en:Глава 12

01:06:34.574 : en:Глава 13

01:12:05.321 : en:Глава 14

01:19:46.198 : en:Глава 15

01:28:48.823 : en:Глава 16

01:33:44.452 : en:Глава 17

01:38:12.595 : en:Глава 18

01:41:44.682 : en:Глава 19

01:49:47.581 : en:Глава 20



Релиз от:



Discussion

Comments 0

Post Your Comment

Files in this torrent

FILENAMESIZE
1917.2019.BDREMUX.2160p.HDR.seleZen.mkv62.2 GB

Alternative Torrents for 'HDR'.

TORRENT NAMEADDEDSIZESEEDSPEERSHEALTH
6/22/20202 GB38123
6/16/20201.5 GB2215
6/19/20201.9 GB19710
6/25/20201.9 GB1884
6/16/202011.4 GB12213
6/28/20203.4 GB9326
6/28/20206.6 GB83106
6/22/20203.2 GB668
6/18/20209.6 GB4729
6/25/202025.2 GB4626
6/25/202025.5 GB4126
6/17/20201.8 GB3824
6/28/202010.2 GB3421
6/28/202053.8 GB3434
6/25/202017.7 GB314