1917 2019 ITunes BDRip AVC ExKinoRay

Torrent Details


1917 2019 iTunes BDRip AVC<span style=color:#fc9c6d> ExKinoRay</span>

NAME
1917 2019 iTunes BDRip AVC ExKinoRay.torrent
CATEGORY
Movies
INFOHASH
a986b4dbb832b783823f174e9acef6e45534aba9
SIZE
2.3 GB in 1 file
ADDED
Uploaded on 24-03-2020 by our crawler pet called "Spidey".
SWARM
0 seeders & 0 peers
RATING
No votes yet.

Please login to vote for this torrent.


Description

Название: 1917

Оригинальное название: 1917

Год выхода: 2019

Жанр: военный, боевик, драма, история

Режиссер: Сэм Мендес

В ролях: Эндрю Скотт, Бенедикт Камбербэтч, Колин Фёрт, Ричард Мэдден, Дин-Чарльз Чепмен, Джордж МакКэй, Марк Стронг, Дэниэл Мейс, Эдриан Скарборо, Клэр Дюбюрк и другие.



О фильме: 6 апреля 1917 года, разгар Первой мировой войны, Западный фронт на севере Франции. Британский генерал поручает капралу Блэйку и его сослуживцу смертельно опасную миссию. Они должны пересечь вражескую территорию, вроде бы оставленную германскими войсками, и доставить приказ об отмене наступления во 2-й батальон Девонширского полка, иначе 1600 солдат попадут в ловушку противника, в том числе и брат Блэйка.









Страна: США, Великобритания, Индия, Испания, Канада

Студия: Amblin Partners, DreamWorks, Neal Street Productions

Продолжительность: 01:58:58

Перевод: Дублированный | iTunes



Формат: MKV

Исходник: 1917.2019.BluRay.1080p.TrueHD.Atmos.7.1.AVC.REMUX-FraMeSToR

Качество: BDRip-AVC

Видео: MPEG-4 AVC, 1024x426 (2.40:1), 23.976 fps, 1917 Kbps, 0.183 bit/pixel

Аудио #01: 48 kHz, AC3, 5.1, 384 Kbps | iTunes | RUS |

Аудио #02: 48 kHz, AC3, 5.1, 448 Kbps | Оригинал | ENG |

Субтитры: Русские (Full (MENINSUB)), английские





ОтчетМедиаИнфо

x264 [info]: frame I:719 Avg QP:15.24 size: 66965

x264 [info]: frame P:51842 Avg QP:19.81 size: 18903

x264 [info]: frame B:118583 Avg QP:20.80 size: 5752

x264 [info]: consecutive B-frames: 7.3% 9.1% 16.6% 25.6% 14.3% 18.8% 3.0% 1.2% 1.1% 1.3% 1.8%

_____________________________________________________

General

Unique ID : 208856853825403452049808940509960219655 (0x9D205DEC533B638CB063FB2F143E2C07)

Complete name : F:1917.2019.iTunes.BDRip.AVC.ExKinoRay.mkv

Format : Matroska

Format version : Version 2

File size : 2.29 GiB

Duration : 1 h 58 min

Overall bit rate : 2 751 kb/s

Movie name : 1917 2019 from ExKinoRay

Encoded date : UTC 2020-03-24 20:27:52

Writing application : mkvmerge v5.6.0 ('Kenya Kane') built on May 27 2012 16:44:04

Writing library : libebml v1.2.3 + libmatroska v1.3.0

Attachments : poster.jpg



Video

ID : 1

Format : AVC

Format/Info : Advanced Video Codec

Format profile : [email protected]

Format settings, CABAC : Yes

Format settings, ReFrames : 11 frames

Codec ID : V_MPEG4/ISO/AVC

Duration : 1 h 58 min

Bit rate : 1 917 kb/s

Width : 1 024 pixels

Height : 426 pixels

Display aspect ratio : 2.40:1

Frame rate mode : Constant

Frame rate : 23.976 (23976/1000) FPS

Color space : YUV

Chroma subsampling : 4:2:0

Bit depth : 8 bits

Scan type : Progressive

Bits/(Pixel*Frame) : 0.183

Stream size : 1.55 GiB (68%)

Title : Enigma

Writing library : x264 core 152 r2851 ba24899

Encoding settings : cabac=1 / ref=11 / deblock=1:-2:-2 / analyse=0x3:0x113 / me=umh / subme=10 / psy=1 / psy_rd=1.02:0.05 / mixed_ref=1 / me_range=32 / chroma_me=1 / trellis=2 / 8x8dct=1 / cqm=0 / deadzone=21,11 / fast_pskip=0 / chroma_qp_offset=-3 / threads=12 / lookahead_threads=3 / sliced_threads=0 / nr=0 / decimate=0 / interlaced=0 / bluray_compat=0 / constrained_intra=0 / bframes=10 / b_pyramid=2 / b_adapt=2 / b_bias=0 / direct=3 / weightb=1 / open_gop=0 / weightp=2 / keyint=240 / keyint_min=23 / scenecut=40 / intra_refresh=0 / rc=2pass / mbtree=0 / bitrate=1917 / ratetol=1.0 / qcomp=0.60 / qpmin=0 / qpmax=51 / qpstep=4 / cplxblur=20.0 / qblur=0.5 / ip_ratio=1.40 / pb_ratio=1.30 / aq=1:1.00

Language : English

Default : Yes

Forced : No

Color range : Limited

Color primaries : BT.709

Transfer characteristics : BT.709

Matrix coefficients : BT.709



Audio #1

ID : 2

Format : AC-3

Format/Info : Audio Coding 3

Mode extension : CM (complete main)

Format settings, Endianness : Big

Codec ID : A_AC3

Duration : 1 h 58 min

Bit rate mode : Constant

Bit rate : 384 kb/s

Channel(s) : 6 channels

Channel positions : Front: L C R, Side: L R, LFE

Sampling rate : 48.0 kHz

Frame rate : 31.250 FPS (1536 spf)

Compression mode : Lossy

Stream size : 327 MiB (14%)

Title : iTunes

Language : Russian

Default : Yes

Forced : No



Audio #2

ID : 3

Format : AC-3

Format/Info : Audio Coding 3

Mode extension : CM (complete main)

Format settings, Endianness : Big

Codec ID : A_AC3

Duration : 1 h 58 min

Bit rate mode : Constant

Bit rate : 448 kb/s

Channel(s) : 6 channels

Channel positions : Front: L C R, Side: L R, LFE

Sampling rate : 48.0 kHz

Frame rate : 31.250 FPS (1536 spf)

Compression mode : Lossy

Stream size : 381 MiB (16%)

Language : English

Default : No

Forced : No



Text #1

ID : 4

Format : UTF-8

Codec ID : S_TEXT/UTF8

Codec ID/Info : UTF-8 Plain Text

Title : Forced

Language : Russian

Default : Yes

Forced : No



Text #2

ID : 5

Format : UTF-8

Codec ID : S_TEXT/UTF8

Codec ID/Info : UTF-8 Plain Text

Title : Full (MENINSUB)

Language : Russian

Default : No

Forced : No



Text #3

ID : 6

Format : UTF-8

Codec ID : S_TEXT/UTF8

Codec ID/Info : UTF-8 Plain Text

Language : English

Default : No

Forced : No



Menu

00:00:00.000 : en:00:00:00.000

00:04:59.424 : en:00:04:59.424

00:08:19.374 : en:00:08:19.374

00:13:26.639 : en:00:13:26.639

00:16:38.789 : en:00:16:38.789

00:23:32.494 : en:00:23:32.494

00:30:28.660 : en:00:30:28.660

00:35:34.549 : en:00:35:34.549

00:42:25.376 : en:00:42:25.376

00:51:34.091 : en:00:51:34.091

00:56:36.310 : en:00:56:36.310

01:02:29.079 : en:01:02:29.079

01:06:33.573 : en:01:06:33.573

01:12:04.320 : en:01:12:04.320

01:19:45.197 : en:01:19:45.197

01:28:47.822 : en:01:28:47.822

01:33:43.451 : en:01:33:43.451

01:38:11.594 : en:01:38:11.594

01:41:43.681 : en:01:41:43.681

01:49:46.580 : en:01:49:46.580



















Релиз от:



Автор релиза:

Discussion

Comments 0

Post Your Comment

Files in this torrent

FILENAMESIZE
1917.2019.iTunes.BDRip.AVC.ExKinoRay.mkv2.3 GB

Alternative Torrents for 'iTunes AVC'.

TORRENT NAMEADDEDSIZESEEDSPEERSHEALTH
6/19/20202.3 GB17813
5/30/20201.4 GB00
5/28/20205.3 GB00
5/12/20204.5 GB00
5/12/20202.4 GB00
5/12/20203.4 GB00
5/12/20205.8 GB00
5/11/20202.4 GB00
5/10/20203.3 GB00
5/10/20202.4 GB00
5/10/20204.1 GB00
3/24/20202.3 GB00
2/28/20203.3 GB00
2/25/20202.4 GB00
11/17/20191.9 GB00